<?xml version="1.0" standalone="no"?>
<!DOCTYPE svg PUBLIC "-//W3C//DTD SVG 1.1//EN" "http://www.w3.org/Graphics/SVG/1.1/DTD/svg11.dtd" >
<svg xmlns="http://www.w3.org/2000/svg">
<metadata>Generated by IcoMoon</metadata>
<defs>
<font id="ateuco-icons" horiz-adv-x="1024">
<font-face units-per-em="1024" ascent="960" descent="-64" />
<missing-glyph horiz-adv-x="1024" />
<glyph unicode="&#x20;" horiz-adv-x="512" d="" />
<glyph unicode="&#xe900;" glyph-name="alert" d="M608.768 822.067l-0.819 0.307c-36.352 74.138-153.395 76.698-190.362 1.331-170.189-70.861-183.296-204.902-176.026-367.923 0-21.299-9.523-52.736-18.022-67.686l-46.49-77.517c-37.581-59.187-5.632-138.65 60.621-157.901 44.954-14.643 91.136-25.805 137.318-33.178 41.472-138.957 237.773-136.909 279.142 1.229 45.466 7.782 91.034 19.251 135.68 34.099 65.126 20.992 93.696 102.093 58.47 157.901 0 0-46.49 77.517-46.49 77.517-9.114 13.619-18.125 47.206-18.125 67.789 8.090 160.666-10.342 293.069-174.694 364.032zM585.626 107.418c-35.021-48.435-114.688-45.466-146.33 4.096 50.995-4.301 99.123-4.096 149.811 0.512l-3.584-4.608zM799.232 284.365c17.715-30.003 4.403-69.939-28.058-79.155-84.275-27.75-170.906-41.574-257.638-41.574s-173.466 13.824-257.741 41.574c-85.197 32.461-6.656 107.008 16.282 154.317 12.698 23.245 26.214 64.922 26.214 96.154v115.2c7.27 281.805 420.659 279.757 428.134 0-0.819-144.282-9.933-163.635 72.704-286.618z" />
<glyph unicode="&#xe901;" glyph-name="arrow-long" d="M963.789 406.63c22.938 22.938 22.938 60.006 0 82.944l-234.496 234.496c-22.938 22.938-60.006 22.938-82.944 0s-22.938-60.006 0-82.944l134.554-134.554h-679.322c-32.358 0-58.573-26.214-58.573-58.573s26.214-58.573 58.573-58.573h679.322l-134.554-134.554c-22.938-22.938-22.938-60.006 0-82.944s60.006-22.938 82.944 0l234.496 234.496z" />
<glyph unicode="&#xe902;" glyph-name="calendar-time" d="M378.573 313.549c6.758-7.168 10.957-16.998 10.957-26.829s-4.198-19.661-10.957-26.829c-7.168-6.758-16.998-10.957-26.829-10.957-4.915 0-9.83 1.126-14.336 3.072-4.608 1.946-8.806 4.608-12.493 7.987-6.861 7.27-10.854 16.794-10.957 26.829 0 4.915 1.126 9.83 3.072 14.336 1.741 4.71 4.403 8.909 7.885 12.493 15.155 13.926 38.502 13.926 53.658 0zM337.408 384.205c4.506-1.946 9.421-2.97 14.336-3.072 9.83 0 19.661 4.198 26.829 10.957l4.506 5.632c1.434 2.15 2.56 4.403 3.379 6.758 1.126 2.15 1.843 4.403 2.253 6.758 2.253 12.39-1.536 25.19-10.24 34.406-15.053 14.336-38.605 14.336-53.658 0-3.379-3.789-6.042-7.885-7.885-12.493-5.939-14.029-2.765-30.31 7.885-41.165 3.584-3.379 7.885-6.144 12.493-7.987zM510.874 313.549c-15.155 13.926-38.502 13.926-53.658 0-3.482-3.584-6.246-7.782-7.987-12.493-1.946-4.506-2.97-9.421-3.072-14.336 0.102-10.035 4.096-19.558 10.957-26.829 7.168-6.758 16.998-10.957 26.829-10.957s19.661 4.198 26.829 10.957c6.758 7.168 10.957 16.998 10.957 26.829 0 4.915-1.126 9.83-3.072 14.336-1.843 4.915-4.506 9.114-7.987 12.493zM601.907 453.734c-4.915-1.843-8.704-4.506-12.493-7.987-6.758-7.168-10.957-16.998-10.957-26.829l0.717-7.578c0.41-2.355 1.229-4.71 2.253-6.758 0.819-2.458 1.946-4.71 3.379-6.758l4.506-5.632c3.584-3.379 7.885-6.144 12.493-7.987 4.506-1.946 9.421-2.97 14.336-3.072 9.83 0 19.661 4.198 26.829 10.957l4.506 5.632c1.434 2.15 2.56 4.403 3.379 6.758 1.126 2.15 1.843 4.403 2.253 6.758l0.717 7.578c0 9.83-4.198 19.661-10.957 26.829-10.854 10.752-27.136 13.824-41.165 7.987zM469.606 453.734c-4.915-1.843-8.704-4.506-12.493-7.987-3.379-3.789-6.042-7.885-7.987-12.493-5.939-14.029-2.765-30.31 7.987-41.165 3.584-3.379 7.885-6.144 12.493-7.987 4.506-1.946 9.421-2.97 14.336-3.072 9.83 0 19.661 4.198 26.829 10.957l4.506 5.632c1.434 2.15 2.56 4.403 3.379 6.758 1.126 2.15 1.843 4.403 2.253 6.758l0.717 7.578c0 9.83-4.198 19.661-10.957 26.829-10.854 10.752-27.136 13.824-41.165 7.987zM555.008 90.829c2.458-7.27 5.325-14.438 8.499-21.402h-230.707c-137.933 0-217.293 79.36-217.293 217.293v321.229c0 128.205 68.608 205.619 188.928 215.962v29.594c0 15.462 12.8 28.365 28.365 28.365s28.365-12.8 28.365-28.365v-28.365h245.658v28.365c0 15.462 12.8 28.365 28.365 28.365s28.365-12.8 28.365-28.365v-29.594c120.32-10.342 188.928-87.859 188.928-215.962v-201.318c-18.432 5.12-37.376 8.192-56.73 8.806v141.824h-623.514v-270.541c0-108.134 52.531-160.666 160.666-160.666h213.504c1.741-10.752 4.403-21.709 8.602-35.226zM172.442 613.99h623.206c-1.843 94.106-45.158 144.384-132.096 153.088v-26.829c0-15.462-12.8-28.365-28.365-28.365-15.565 0.205-28.16 12.8-28.365 28.365v28.365h-245.658v-28.365c0-15.462-12.8-28.365-28.365-28.365-15.565 0.205-28.16 12.8-28.365 28.365v26.829c-86.938-8.602-130.253-58.982-132.096-153.088zM983.142 133.734c-10.957-53.146-42.189-100.045-85.914-128.205-35.942-23.45-68.813-32.87-111.002-32.87-26.522 0-40.653 1.536-64.102 9.421-57.856 18.739-106.291 67.174-125.030 123.494-7.782 24.986-9.421 39.117-9.421 65.638s1.536 40.653 9.421 64.102c23.45 70.349 87.552 123.494 164.147 134.451 60.211 8.090 120.73-12.083 164.147-54.682 29.696-29.696 48.435-64.102 57.856-106.291 3.174-18.739 3.174-56.218 0-75.059zM936.243 171.213c0 26.522-9.421 57.856-24.986 81.306-9.421 14.029-28.16 34.406-42.189 43.725-15.667 9.421-35.942 17.203-54.682 21.914-48.435 9.421-98.509-4.71-134.451-40.653l-18.739-24.986c-15.667-23.45-24.986-54.682-24.986-81.306s9.421-59.392 24.986-82.842c9.421-14.029 29.696-32.87 43.725-42.189 23.45-15.667 54.682-24.986 81.306-24.986s59.392 9.421 82.842 24.986c14.029 9.421 32.87 28.16 42.189 42.189 15.667 23.45 24.986 56.218 24.986 82.842zM875.213 166.502c-4.71 3.174-7.782 4.71-46.899 4.71h-42.189v42.189c0 39.117-1.536 42.189-4.71 46.899l-6.246 6.246c-4.71 4.71-17.203 6.246-23.45 3.174-7.782-3.174-14.029-10.957-14.029-17.203l-1.536-60.928c0-51.61 1.536-54.682 4.71-59.392l6.246-6.246c4.71-3.174 6.246-3.174 64.102-3.174s59.392 0 64.102 3.174c7.782 6.246 10.957 10.957 10.957 20.275s-3.174 15.667-10.957 20.275z" />
<glyph unicode="&#xe903;" glyph-name="calendar" d="M705.946 824.422v32.051c0 16.794-13.926 30.618-30.618 30.618s-30.618-13.926-30.618-30.618v-30.618h-265.421v30.618c0 16.794-13.926 30.618-30.618 30.618s-30.618-13.926-30.618-30.618v-32.051c-130.048-11.162-204.186-94.925-204.186-233.472v-347.136c0-149.094 85.811-234.803 234.803-234.803h326.758c149.094 0 234.803 85.811 234.803 234.803v347.136c0 138.547-74.138 222.208-204.186 233.472zM318.054 762.88v-28.979c0.205-16.794 13.824-30.413 30.618-30.618 16.794 0 30.618 13.926 30.618 30.618v30.618h265.421v-30.618c0.205-16.794 13.824-30.413 30.618-30.618 16.794 0 30.618 13.926 30.618 30.618v28.979c94.003-9.318 140.8-63.693 142.746-165.376h-673.382c1.946 101.683 48.742 156.058 142.746 165.376zM675.328 70.246h-326.758c-116.838 0-173.568 56.73-173.568 173.568v292.454h673.894v-292.454c0-116.838-56.73-173.568-173.568-173.568zM409.805 386.662c0-22.508-18.247-40.755-40.755-40.755s-40.755 18.247-40.755 40.755c0 22.508 18.247 40.755 40.755 40.755s40.755-18.247 40.755-40.755zM552.755 386.662c0-22.508-18.247-40.755-40.755-40.755s-40.755 18.247-40.755 40.755c0 22.508 18.247 40.755 40.755 40.755s40.755-18.247 40.755-40.755zM695.706 386.662c0-22.508-18.247-40.755-40.755-40.755s-40.755 18.247-40.755 40.755c0 22.508 18.247 40.755 40.755 40.755s40.755-18.247 40.755-40.755zM409.805 243.507c0-22.508-18.247-40.755-40.755-40.755s-40.755 18.247-40.755 40.755c0 22.508 18.247 40.755 40.755 40.755s40.755-18.247 40.755-40.755zM552.755 243.507c0-22.508-18.247-40.755-40.755-40.755s-40.755 18.247-40.755 40.755c0 22.508 18.247 40.755 40.755 40.755s40.755-18.247 40.755-40.755zM695.706 243.507c0-22.508-18.247-40.755-40.755-40.755s-40.755 18.247-40.755 40.755c0 22.508 18.247 40.755 40.755 40.755s40.755-18.247 40.755-40.755z" />
<glyph unicode="&#xe904;" glyph-name="card" d="M566.784 311.706h-147.558c-14.95 0-27.136-12.186-27.136-27.136s12.186-27.136 27.136-27.136h147.558c14.95 0 27.136 12.186 27.136 27.136s-12.186 27.136-27.136 27.136zM250.675 257.434h63.181c14.95 0 27.136 12.186 27.136 27.136s-12.186 27.136-27.136 27.136h-63.181c-14.95 0-27.136-12.186-27.136-27.136s12.186-27.136 27.136-27.136zM855.040 775.68h-686.080c-49.664 0-79.667-30.003-79.667-79.667v-496.026c0-49.664 30.003-79.667 79.667-79.667h686.182c49.664 0 79.667 30.003 79.667 79.667v496.026c0 49.664-30.003 79.667-79.667 79.667zM884.326 203.264c0-16.384-13.312-29.696-29.696-29.696h-685.261c-16.384 0-29.696 13.312-29.696 29.696v298.906h744.55v-298.906zM884.326 638.566h-744.653v54.17c0 16.384 13.312 29.696 29.696 29.696h685.261c16.384 0 29.696-13.312 29.696-29.696v-54.17z" />
<glyph unicode="&#xe905;" glyph-name="case" d="M854.938 657.306h-148.582v71.066c0 33.69-26.010 61.030-57.958 61.030h-258.15c-31.949 0-57.958-27.341-57.958-61.030v-71.066h-163.328c-70.349 0-127.488-57.242-127.488-127.488v-295.731c0-70.349 57.242-127.488 127.488-127.488h685.875c70.349 0 127.488 57.242 127.488 127.488v295.731c0 70.349-57.242 127.488-127.488 127.488zM388.71 728.371c0 2.97 1.434 4.608 1.638 4.71h257.843s1.946-1.843 1.946-4.71v-71.066h-261.427v71.066zM926.106 234.086c0-39.219-31.949-71.168-71.168-71.168h-685.875c-39.219 0-71.168 31.949-71.168 71.168v295.731c0 39.219 31.949 71.168 71.168 71.168h685.875c39.219 0 71.168-31.949 71.168-71.168v-295.731z" />
<glyph unicode="&#xe906;" glyph-name="check" d="M898.662 719.36c22.528-22.528 22.528-58.982 0-81.51l-461.21-461.21c-22.528-22.528-58.982-22.528-81.51 0l-230.605 230.605c-22.528 22.528-22.528 58.982 0 81.51s58.982 22.528 81.51 0l189.85-189.645 420.454 420.25c22.528 22.528 58.982 22.528 81.51 0v0z" />
<glyph unicode="&#xe907;" glyph-name="chevron" d="M732.979 489.984c23.347-23.347 23.347-61.030 0-84.378l-357.581-357.581c-23.347-23.347-61.030-23.347-84.378 0s-23.347 61.030 0 84.378l315.392 315.392-315.187 315.392c-23.347 23.347-23.347 61.030 0 84.378s61.030 23.347 84.378 0l357.581-357.581z" />
<glyph unicode="&#xe908;" glyph-name="edit" d="M261.939 741.888c-75.571 0-137.216-61.44-137.216-137.216v-406.733c0-75.571 61.44-137.216 137.216-137.216h406.733c75.571 0 137.216 61.44 137.216 137.216v152.576c0 19.661-15.974 35.43-35.43 35.43s-35.43-15.974-35.43-35.43v-152.576c0-36.454-29.696-66.15-66.15-66.15h-406.938c-36.454 0-66.15 29.696-66.15 66.15v406.733c0 36.454 29.696 66.15 66.15 66.15h152.576c19.661 0 35.43 15.974 35.43 35.43s-15.974 35.43-35.43 35.43h-152.576zM394.24 464.179c-8.192-8.192-14.336-18.022-17.613-28.672l-47.104-141.107c-2.662-8.192-0.614-17.203 5.53-23.552 6.144-6.144 14.95-8.192 23.347-5.53l141.107 47.104c10.65 3.482 20.48 9.626 28.877 17.818l254.771 254.976-133.939 133.939-254.976-255.181zM847.872 813.568c-28.672 28.672-75.366 28.672-104.038 0l-36.864-36.864 133.734-133.734 36.864 36.864c13.926 13.926 21.504 32.358 21.504 52.019s-7.578 38.093-21.504 52.019l-29.696 29.491z" />
<glyph unicode="&#xe909;" glyph-name="email" d="M823.501 750.285h-623.002c-52.224 0-94.618-42.496-94.618-94.618v-415.334c0-52.224 42.496-94.618 94.618-94.618h623.104c52.224 0 94.618 42.496 94.618 94.618v415.334c0 52.224-42.496 94.618-94.618 94.618zM858.726 240.333c0-19.354-15.77-35.226-35.226-35.226h-623.002c-19.354 0-35.226 15.77-35.226 35.226v298.291l245.453-201.523c58.573-48.128 143.77-48.128 202.445 0l245.453 201.523v-298.291zM858.726 615.424l-283.136-232.55c-17.818-14.643-40.346-22.63-63.488-22.63s-45.773 8.090-63.488 22.63l-283.238 232.55v40.243c0 19.354 15.77 35.226 35.226 35.226h623.104c19.354 0 35.226-15.77 35.226-35.226v-40.243z" />
<glyph unicode="&#xe90a;" glyph-name="equipment" d="M889.958 688.23c-15.77 7.885-51.2 15.77-98.406-15.77l-59.494-40.448c-4.813 127.795-61.133 178.176-196.403 178.176h-248.115c-141.722 0-196.915-55.091-196.915-196.915v-330.752c0-94.515 51.2-196.915 196.915-196.915h248.115c135.27 0 191.59 50.381 196.403 178.176l59.494-40.448c27.546-19.661 51.2-23.654 66.97-23.654s27.546 3.891 31.539 7.885 43.315 31.539 43.315 90.522v299.213c0 59.085-27.546 82.739-43.315 90.522zM539.546 144.794h-248.115c-122.061 0-137.83 86.63-137.83 137.83v330.752c0 110.285 27.546 137.83 133.837 137.83h252.006c110.285 0 137.83-31.539 137.83-137.83v-18.739c-5.222-5.222-7.885-14.234-7.885-20.582v-252.006c0-6.451 2.662-15.36 7.885-20.582v-18.739c0-110.285-31.539-137.83-137.83-137.83zM882.176 298.394c0-23.654-3.891-35.43-11.776-39.424-7.885-3.891-19.661 0-39.424 11.776l-98.406 66.97v220.467l98.406 66.97c15.77 11.776 31.539 15.77 39.424 11.776 7.885-3.891 11.776-19.661 11.776-39.424v-299.213zM496.23 629.146c-47.206 0-86.63-39.424-86.63-86.63s39.424-86.63 86.63-86.63 86.63 39.424 86.63 86.63-39.424 86.63-86.63 86.63zM496.23 510.976c-19.661 0-31.539 11.776-31.539 31.539s15.77 31.539 31.539 31.539 31.539-11.776 31.539-31.539-11.776-31.539-31.539-31.539z" />
<glyph unicode="&#xe90b;" glyph-name="exel" d="M512.512 174.182c0-22.733 16.691-25.702 24.064-25.702 18.022 0 22.733 8.192 37.786 31.334l57.958 87.552 54.067-84.992c15.872-25.293 21.402-33.894 38.605-33.894 19.763 0 28.262 13.722 28.262 26.624 0 6.042 0.41 12.493-16.282 38.195l-65.229 100.352 60.518 90.522c3.891 6.042 16.282 24.474 16.282 37.786s-11.162 24.064-26.214 24.064c-15.872 0-18.842-3.891-39.936-36.045l-48.947-74.65-46.387 74.65c-15.053 24.064-22.323 36.045-39.424 36.045-15.053 0-27.443-9.421-27.443-24.474 0-11.162 9.421-28.262 16.282-38.605l59.187-90.931-67.789-99.123c-14.131-20.582-15.462-30.003-15.462-38.605zM364.544 242.79v141.414c0 17.51-14.131 31.642-31.642 31.642h-119.603c-17.51 0-31.642-14.131-31.642-31.642v-141.414h-72.397l163.84-239.514 163.84 239.514h-72.397zM844.288 570.675c-0.205 1.126-0.614 2.253-1.024 3.379-0.205 0.512-0.205 0.922-0.41 1.434-0.512 1.229-1.126 2.355-1.843 3.482-0.205 0.307-0.307 0.614-0.512 0.922-0.922 1.434-2.048 2.662-3.174 3.891l-268.8 268.8c-1.229 1.229-2.458 2.253-3.891 3.174-0.41 0.205-0.819 0.41-1.126 0.614-1.024 0.614-2.048 1.229-3.277 1.741-0.512 0.205-1.126 0.307-1.638 0.512-1.024 0.307-2.048 0.717-3.072 0.922-1.638 0.307-3.379 0.512-5.018 0.512h-268.8c-56.525 0-102.4-45.875-102.4-102.4v-281.6c0-14.131 11.469-25.6 25.6-25.6s25.6 11.469 25.6 25.6v281.6c0 28.262 22.938 51.2 51.2 51.2h243.2v-243.2c0-14.131 11.469-25.6 25.6-25.6h243.2v-396.902c0-28.262-22.938-51.2-51.2-51.2h-338.534c-14.131 0-25.6-11.469-25.6-25.6s11.469-25.6 25.6-25.6h338.534c56.525 0 102.4 45.875 102.4 102.4v422.502c0 1.741-0.205 3.379-0.512 5.018zM576 591.258v181.453l181.453-181.453h-181.453z" />
<glyph unicode="&#xe90c;" glyph-name="eye-no" d="M837.12 733.901c5.222 5.325 9.421 12.902 11.059 20.070 2.662 11.469-4.608 22.835-15.155 27.955-11.264 5.53-23.245 3.482-32.973-6.144-27.75-27.648-55.603-55.296-83.046-83.149-4.915-5.018-8.602-6.246-15.565-3.277-112.845 47.923-228.045 53.35-343.962 13.722-123.494-42.291-215.757-124.518-286.31-232.755-10.035-15.462-10.138-28.877-0.102-44.442 32.666-50.893 71.475-96.256 117.658-134.963 22.733-19.046 47.309-36.045 72.499-55.091-2.253-1.843-4.915-3.686-7.27-5.939-23.654-23.552-47.309-47.002-70.656-70.758-11.264-11.469-11.059-28.365-0.205-39.424 10.752-11.059 27.648-11.264 39.526-0.512 2.56 2.355 5.018 4.915 7.475 7.373 147.661 147.661 295.322 295.219 442.982 442.88 54.784 54.784 109.67 109.466 164.25 164.557zM415.642 392.909c-22.835 32.256-24.064 90.931 14.643 131.891 35.84 38.093 97.485 47.002 136.806 19.558-50.688-50.688-101.069-101.069-151.45-151.45zM608.87 585.933c-78.131 52.941-167.424 30.413-216.781-19.456-49.562-50.074-70.554-138.342-17.715-216.371-21.914-21.811-43.315-43.315-64.819-64.819-1.843-1.843-3.789-3.584-5.939-5.632-29.594 16.486-56.73 36.147-82.125 58.163-35.43 30.822-66.765 65.434-93.594 104.038-2.765 3.891-3.891 6.758-0.614 11.469 62.771 89.19 141.722 158.413 245.76 195.174 96.154 33.997 192.512 32.154 288.051-3.994 1.536-0.614 3.072-1.434 3.789-1.843-18.739-18.944-37.376-37.888-56.013-56.73zM953.446 468.992c-20.070 31.334-42.598 60.826-67.891 88.064-23.245 25.088-48.333 48.23-75.366 68.506-13.517-13.619-26.624-26.931-40.346-40.755 2.15-1.741 4.608-3.789 7.168-5.632 45.773-35.226 84.89-76.698 118.17-123.904 3.789-5.325 4.096-8.806 0.205-14.336-38.912-55.296-85.299-103.117-141.312-141.005-93.491-63.181-196.198-89.19-308.019-70.042-22.63 3.891-37.376 0.512-50.688-17.101-6.554-8.602-15.36-15.36-23.654-23.552 2.662-1.229 3.686-1.843 4.813-2.15 89.498-25.907 179.405-27.341 268.8-0.819 134.246 39.936 233.37 125.542 308.634 241.357 9.318 14.336 8.806 27.238-0.307 41.472zM622.694 434.79c-6.963-52.326-45.568-91.034-97.485-97.587-2.56-0.307-5.632-0.819-7.27-2.458-16.282-15.872-32.256-31.949-50.074-49.766 67.379-14.336 123.802 1.126 168.755 50.381 40.141 44.032 51.712 96.256 37.888 156.672-17.51-17.715-33.485-33.792-49.254-50.074-1.638-1.638-2.15-4.71-2.56-7.168z" />
<glyph unicode="&#xe90d;" glyph-name="eye" d="M951.296 470.426c-23.757 27.75-47.206 55.91-72.806 81.818-61.747 62.362-131.277 114.278-212.582 148.992-56.73 24.269-115.814 36.352-177.664 32.256-67.482-4.506-129.536-27.034-187.597-60.518-90.317-52.122-165.171-121.958-229.274-203.674-11.469-14.643-11.571-27.75 0-42.291 73.011-92.365 158.31-170.189 265.011-222.31 55.296-27.034 113.562-42.496 164.147-42.701 88.371 0 158.413 24.166 224.154 62.157 89.19 51.61 163.123 120.832 226.816 201.421 12.902 16.282 13.312 29.286 0 45.056zM841.318 390.554c-49.152-49.766-103.219-93.286-165.581-125.542-55.808-28.877-114.483-46.592-178.278-43.52-41.677 2.048-81.203 12.902-119.296 29.389-75.981 32.973-139.776 83.251-197.427 141.722-17.408 17.613-33.69 36.25-51.405 55.398 18.125 19.661 34.816 38.707 52.634 56.73 49.254 49.971 103.526 93.798 166.195 126.157 55.808 28.877 114.483 46.592 178.278 43.52 41.677-2.048 81.203-12.902 119.194-29.389 76.186-33.178 140.186-83.558 198.042-142.336 17.203-17.408 33.28-35.84 50.79-54.784-18.33-19.763-35.226-39.117-53.248-57.344zM511.795 625.459c-97.894-0.102-177.050-79.258-177.357-177.254s79.565-177.971 177.664-177.766c97.894 0.102 177.050 79.258 177.357 177.254s-79.565 177.971-177.664 177.766zM511.488 329.626c-65.536 0.614-118.17 53.555-117.862 118.579 0.307 65.331 53.248 118.067 118.374 118.067 65.229 0 117.965-52.838 118.17-118.17 0.205-65.434-53.555-119.091-118.682-118.477z" />
<glyph unicode="&#xe90e;" glyph-name="file" d="M661.709 43.008h-299.418c-110.592 0-171.52 0-213.402 41.882s-41.882 102.81-41.882 213.402v37.478c0 110.592 0 171.52 41.882 213.402 38.298 38.298 91.955 41.37 175.821 41.779 17.306 0.307 30.822-13.619 30.925-30.515 0-16.998-13.619-30.822-30.515-30.925-75.674-0.41-112.845-3.994-132.71-23.859-22.938-22.938-23.859-66.048-23.859-169.984v-37.478c0-103.936 0.922-146.944 23.859-169.984 22.938-22.938 66.048-23.859 169.984-23.859h299.418c103.936 0 146.944 0.922 169.984 23.859 22.938 22.938 23.859 66.048 23.859 169.984v37.478c0 103.936-0.922 146.944-23.859 169.984-19.866 19.866-57.037 23.45-132.71 23.859-16.998 0-30.618 13.926-30.515 30.925 0 16.896 13.824 30.515 30.72 30.515h0.205c83.866-0.512 137.523-3.482 175.821-41.779 41.882-41.882 41.882-102.81 41.882-213.402v-37.478c0-110.592 0-171.52-41.882-213.402s-102.81-41.882-213.402-41.882zM512 304.947c-16.998 0-30.72 13.722-30.72 30.72v403.558l-58.266-67.994c-11.059-12.902-30.413-14.336-43.315-3.379-12.902 11.059-14.336 30.413-3.379 43.315l111.923 130.56c0.614 0.717 1.229 1.434 1.946 2.15 2.56 2.56 5.53 4.608 8.602 6.042 0 0 0 0 0 0s0 0 0.102 0v0c2.97 1.331 6.144 2.253 9.523 2.662h0.102c1.024 0.102 2.458-0.102 3.174 0.205v0s0 0 0 0c1.024 0 2.048 0 3.174-0.205 0 0 0 0 0.102 0 0 0 0 0 0.102 0h0.102c2.765-0.307 5.427-1.024 7.885-2.048v0s0 0 0.102 0v0s0 0 0.102 0c0 0 0 0 0.102 0 0 0 0 0 0.102 0v0s0.512-0.307 0.819-0.41c3.174-1.434 6.144-3.482 8.704-6.144 0.717-0.717 1.331-1.434 1.946-2.15l111.923-130.56c11.059-12.902 9.523-32.256-3.379-43.315s-32.256-9.523-43.315 3.379l-58.266 67.994v-403.558c0-16.998-13.722-30.72-30.72-30.72z" />
<glyph unicode="&#xe90f;" glyph-name="help" d="M504.115 855.552c-224.154 0-407.552-183.398-407.552-407.552s183.398-407.552 407.552-407.552 407.552 183.398 407.552 407.552-183.398 407.552-407.552 407.552zM504.115 99.328c-192.41 0-348.672 156.262-348.672 348.672s156.262 348.672 348.672 348.672 348.672-156.262 348.672-348.672-156.262-348.672-348.672-348.672zM508.621 626.893c76.083 0 122.573-47.923 122.573-101.171 0-40.653-18.739-57.344-72.499-106.394-22.938-20.378-24.474-26.624-29.696-52.122-1.536-7.27-5.222-26.624-30.208-26.624-11.981 0-22.938 7.27-27.136 14.643-4.198 7.782-4.198 18.739-4.198 22.426 0 43.315 25.6 65.741 58.368 94.413 24.474 21.402 35.942 34.406 35.942 52.634 0 23.962-19.866 47.923-54.272 47.923-44.851 0-55.808-31.846-63.59-55.296-3.174-9.421-9.421-28.672-33.382-28.672-19.763 0-33.382 17.203-33.382 31.846 0 23.962 24.986 106.394 131.379 106.394zM500.736 241.050c-20.89 0-38.093 17.203-38.093 38.605s17.203 38.093 38.093 38.093 38.605-17.203 38.605-38.093-17.203-38.605-38.605-38.605z" />
<glyph unicode="&#xe910;" glyph-name="home" d="M810.701 639.898l-214.118 148.48c-58.675 41.472-148.48 41.472-203.776-3.482l-186.47-145.101c-37.99-27.648-65.638-86.323-65.638-134.656v-255.59c0-96.666 79.462-172.646 172.646-172.646h400.589c93.286 0 172.646 75.981 169.267 169.267v252.109c0 51.814-31.13 113.971-72.499 141.619zM838.349 249.651c0-65.638-55.296-120.832-120.832-120.832h-400.691c-65.638 0-120.832 55.296-120.832 120.832v255.59c0 31.13 20.685 72.499 44.851 93.286l186.47 145.101c37.99 27.648 103.629 31.13 145.101 3.482l214.118-148.48c27.648-17.306 51.814-62.157 51.814-96.666v-252.109zM513.638 373.965c-17.306 0-27.648-13.824-27.648-27.648v-103.629c0-17.306 13.824-27.648 27.648-27.648s27.648 10.342 27.648 27.648v103.629c0 17.306-10.342 27.648-27.648 27.648z" />
<glyph unicode="&#xe911;" glyph-name="info" d="M512 855.552c-224.154 0-407.552-183.398-407.552-407.552s183.398-407.552 407.552-407.552 407.552 183.398 407.552 407.552-183.398 407.552-407.552 407.552zM512 99.328c-192.41 0-348.672 156.262-348.672 348.672s156.262 348.672 348.672 348.672 348.672-156.262 348.672-348.672-156.262-348.672-348.672-348.672zM512 477.389c-15.872 0-29.389-13.619-29.389-29.389v-190.157c0-15.872 13.619-29.389 29.389-29.389s29.389 13.619 29.389 29.389v190.157c0 15.872-13.619 29.389-29.389 29.389zM550.502 558.387c0-20.642-16.734-37.376-37.376-37.376s-37.376 16.734-37.376 37.376c0 20.642 16.734 37.376 37.376 37.376s37.376-16.734 37.376-37.376z" />
<glyph unicode="&#xe912;" glyph-name="key" d="M681.882 720.384c-56.525 0-102.502-45.978-102.502-102.502s45.978-102.502 102.502-102.502 102.502 45.978 102.502 102.502-45.978 102.502-102.502 102.502zM681.882 566.579c-28.262 0-51.302 23.040-51.302 51.302s23.040 51.302 51.302 51.302 51.302-23.040 51.302-51.302-23.040-51.302-51.302-51.302zM625.254 835.994c-151.552 0-274.739-123.29-274.739-274.739 0-23.347 2.867-46.387 8.602-68.608l-217.702-217.702c-11.264-11.264-17.408-26.214-17.408-42.189v-113.254c0-32.87 26.726-59.597 59.597-59.597h113.254c32.87 0 59.597 26.726 59.597 59.597v31.027h31.027c32.87 0 59.597 26.726 59.597 59.597v31.027h31.027c15.974 0 30.925 6.144 42.189 17.408l36.454 36.454c22.221-5.734 45.261-8.602 68.608-8.602 151.552 0 274.739 123.29 274.739 274.739s-123.29 274.739-274.739 274.739zM625.254 337.715c-23.45 0-46.387 3.584-68.198 10.547l-14.848 4.71-58.163-58.163c-1.536-1.536-3.686-2.458-5.939-2.458h-82.227v-82.227c0-4.71-3.686-8.397-8.397-8.397h-82.227v-82.227c0-4.71-3.686-8.397-8.397-8.397h-113.254c-4.71 0-8.397 3.686-8.397 8.397v113.254c0 2.253 0.819 4.403 2.458 5.939l239.411 239.411-4.71 14.848c-6.963 21.811-10.547 44.851-10.547 68.198 0 123.29 100.25 223.539 223.539 223.539s223.539-100.25 223.539-223.539-100.25-223.539-223.539-223.539z" />
<glyph unicode="&#xe913;" glyph-name="lock-open" d="M900.198 577.638v0s-61.44 0.102-61.44 0.102h-331.469v37.786c0 141.926-116.122 261.734-257.946 259.379-137.933-2.253-249.344-115.098-249.344-253.542v-12.902c0-16.998 13.722-30.72 30.72-30.72s30.72 13.722 30.72 30.72v12.902c0 108.442 90.214 196.198 199.578 192.102 104.038-3.891 184.832-92.672 184.832-196.813v-38.912h-52.941c-68.813-3.277-123.802-60.211-123.802-129.843v-297.267c0-71.578 58.266-129.843 129.843-129.843h495.411c71.578 0 129.843 58.266 129.843 129.843v297.267c0 69.53-54.989 126.566-123.802 129.638zM962.56 150.733c0-37.683-30.72-68.403-68.403-68.403h-495.411c-37.683 0-68.403 30.618-68.403 68.403v297.267c0 37.683 30.72 68.403 68.403 68.403h495.411c37.683 0 68.403-30.618 68.403-68.403v-297.267z" />
<glyph unicode="&#xe914;" glyph-name="lock" d="M900.198 577.638v43.725c0 139.878-113.766 253.645-253.645 253.645s-253.645-113.766-253.645-253.645v-43.725c-68.813-3.174-123.802-60.109-123.802-129.638v-297.267c0-71.578 58.266-129.843 129.843-129.843h495.411c71.578 0 129.843 58.266 129.843 129.843v297.267c0 69.53-54.989 126.566-123.802 129.638zM646.554 813.568c105.984 0 192.205-86.221 192.205-192.205v-43.622h-384.41v43.622c0 105.984 86.221 192.205 192.205 192.205zM962.56 150.733c0-37.683-30.72-68.403-68.403-68.403h-495.411c-37.683 0-68.403 30.618-68.403 68.403v297.267c0 37.683 30.72 68.403 68.403 68.403h495.411c37.683 0 68.403-30.618 68.403-68.403v-297.267z" />
<glyph unicode="&#xe915;" glyph-name="logout" d="M354.611 170.189h-104.96c-37.376 0-67.789 30.413-67.789 67.891v419.84c0 37.376 30.413 67.891 67.789 67.891h104.96c20.48 0 37.171 16.691 37.171 37.069s-16.691 37.171-37.171 37.171h-104.96c-78.336 0-142.131-63.693-142.131-142.131v-419.84c0-78.336 63.693-142.131 142.131-142.131h104.96c20.48 0 37.171 16.691 37.171 37.171s-16.691 37.069-37.171 37.069zM905.626 474.419l-209.92 209.92c-14.541 14.541-38.093 14.541-52.531 0-6.963-7.066-10.854-16.384-10.854-26.317s3.891-19.251 10.854-26.317l146.637-146.637h-382.669c-20.48 0-37.171-16.691-37.171-37.171s16.691-37.171 37.171-37.171h382.669l-146.637-146.637c-6.963-7.066-10.854-16.384-10.854-26.317s3.891-19.251 10.854-26.317c14.541-14.541 38.093-14.541 52.531 0l209.92 210.125c14.541 14.541 14.541 38.093 0 52.531z" />
<glyph unicode="&#xe916;" glyph-name="logs" d="M307.507 154.317c60.314-41.882 131.072-64.102 204.493-64.102 197.222 0 357.786 160.461 357.786 357.786s-160.563 357.786-357.786 357.786c-95.539 0-185.344-37.171-252.928-104.858l-10.854-10.854-60.416 60.416c-6.861 6.861-15.565 6.656-21.402 4.198s-12.083-8.397-12.083-18.022v-160.461c0-10.854 8.806-19.661 19.661-19.661h160.461c9.626 0 15.667 6.246 18.125 12.186 2.458 5.837 2.56 14.541-4.198 21.402l-55.706 55.706 10.854 10.854c55.706 55.706 129.843 86.426 208.691 86.426 162.816 0 295.219-132.403 295.219-295.219s-132.403-295.219-295.219-295.219c-60.723 0-119.091 18.33-168.653 52.941-5.222 3.686-11.469 5.632-17.818 5.632-10.24 0-19.968-5.018-25.805-13.312-9.933-14.029-6.349-33.587 7.782-43.622zM511.898 629.453c-16.384 0-29.798-13.414-29.798-29.901v-151.552c0-7.987 3.072-15.565 8.704-21.197l104.96-104.96c5.632-5.632 13.21-8.806 21.094-8.806 0 0 0 0 0 0 7.885 0 15.36 3.174 20.89 8.704 5.632 5.632 8.704 13.21 8.704 21.197s-3.072 15.462-8.704 20.992l-96.256 96.256v139.264c0 16.486-13.312 29.798-29.798 29.901z" />
<glyph unicode="&#xe917;" glyph-name="man" d="M512 401.51c-127.795 0-231.834 104.038-231.834 231.834s104.038 231.834 231.834 231.834 231.834-104.038 231.834-231.834-104.038-231.834-231.834-231.834zM512 808.858c-96.768 0-175.514-78.746-175.514-175.514s78.746-175.514 175.514-175.514 175.514 78.746 175.514 175.514-78.746 175.514-175.514 175.514zM859.238 30.822h-694.477c-32.87 0-59.494 26.726-59.494 59.494v14.234c0 150.938 122.778 273.715 273.715 273.715h266.035c150.938 0 273.715-122.778 273.715-273.715v-14.234c0-32.87-26.726-59.494-59.494-59.494zM378.982 322.048c-119.91 0-217.395-97.587-217.395-217.395v-14.234c0-1.741 1.434-3.174 3.174-3.174h694.477c1.741 0 3.174 1.434 3.174 3.174v14.234c0 119.91-97.587 217.395-217.395 217.395h-266.035z" />
<glyph unicode="&#xe918;" glyph-name="moon" d="M537.6 102.502h-14.643c-182.17 6.554-331.878 152.883-344.883 330.24v0c-9.728 151.245 78.131 292.762 218.010 352.973 40.653 16.282 61.85 3.277 71.578-6.554 8.090-9.728 21.197-29.286 3.277-68.301-14.643-32.563-22.733-68.301-22.733-107.315 0-141.517 118.784-263.578 263.578-268.39 21.197 0 42.291 1.638 61.85 4.915 42.291 8.090 60.211-9.728 66.662-19.558 6.554-11.366 14.643-34.202-11.366-69.939-66.662-94.31-175.718-148.070-291.226-148.070zM226.816 436.019c9.728-154.522 141.517-278.118 297.677-284.672 105.779-4.915 206.643 42.291 266.752 126.874 4.915 6.554 6.554 11.366 8.090 14.643-3.277 0-8.090 0-16.282-1.638-22.733-3.277-47.206-4.915-71.578-4.915-170.803 6.554-310.682 149.709-310.682 317.235 0 45.568 8.090 87.859 26.010 126.874 3.277 6.554 3.277 11.366 4.915 14.643-3.277 0-8.090 0-17.92-4.915-120.422-50.381-196.813-174.080-187.085-304.23z" />
<glyph unicode="&#xe919;" glyph-name="object" d="M766.157 624.435h-508.314c-59.699 0-108.339 48.64-108.339 108.339v40.346c0 59.699 48.64 108.339 108.339 108.339h508.211c59.699 0 108.339-48.64 108.339-108.339v-40.346c0-59.699-48.64-108.339-108.339-108.339zM257.843 825.139c-28.672 0-52.019-23.347-52.019-52.019v-40.346c0-28.672 23.347-52.019 52.019-52.019h508.211c28.672 0 52.019 23.347 52.019 52.019v40.346c0 28.672-23.347 52.019-52.019 52.019h-508.211zM838.554 319.488h-653.107c-59.699 0-108.339 48.64-108.339 108.339v40.346c0 59.699 48.64 108.339 108.339 108.339h653.21c59.699 0 108.339-48.64 108.339-108.339v-40.346c0-59.699-48.64-108.339-108.339-108.339zM185.446 520.192c-28.672 0-52.019-23.347-52.019-52.019v-40.346c0-28.672 23.347-52.019 52.019-52.019h653.21c28.672 0 52.019 23.347 52.019 52.019v40.346c0 28.672-23.347 52.019-52.019 52.019h-653.21zM766.157 14.541h-508.314c-59.699 0-108.339 48.64-108.339 108.339v40.346c0 59.699 48.64 108.339 108.339 108.339h508.211c59.699 0 108.339-48.64 108.339-108.339v-40.346c0-59.699-48.64-108.339-108.339-108.339zM257.843 215.245c-28.672 0-52.019-23.347-52.019-52.019v-40.346c0-28.672 23.347-52.019 52.019-52.019h508.211c28.672 0 52.019 23.347 52.019 52.019v40.346c0 28.672-23.347 52.019-52.019 52.019h-508.211z" />
<glyph unicode="&#xe91a;" glyph-name="pdf" d="M666.726 374.989c-9.933 8.294-25.498 12.493-46.182 12.493h-49.459v-139.469h32.051v37.888h17.818c19.968 0 35.328 4.096 45.466 12.083 10.445 8.294 15.77 21.299 15.77 38.4s-5.12 30.106-15.36 38.605v0zM603.034 357.478h16.998c10.752 0 18.637-1.536 23.347-4.71 3.994-2.662 6.042-7.475 6.042-14.746s-1.741-13.21-5.12-16.896c-2.355-2.458-7.987-5.325-20.992-5.325h-20.275v41.574zM747.008 387.482h-49.459v-139.469h48.026c26.214 0 46.080 6.349 59.085 19.046s19.661 30.003 19.661 51.405-6.861 38.707-20.378 50.893c-13.312 12.186-32.461 18.33-56.934 18.33zM791.962 317.85c0-13.107-3.482-22.733-10.752-29.184-7.373-6.554-18.33-9.83-32.563-9.83h-19.046v78.438h16.691c31.232 0 45.773-12.493 45.773-39.322zM938.291 356.864l0.307 30.618h-96.461v-139.571h32.051v53.35h57.344v30.31h-57.344v25.293h64.102zM158.925 247.091c1.024-0.205 2.048-0.307 3.072-0.307h313.242c23.245 0 42.189 18.125 43.827 40.96 0.205 1.024 0.307 2.048 0.307 3.072v399.36c0 1.024-0.102 2.15-0.307 3.072-1.536 21.811-18.842 39.117-40.653 40.653-1.024 0.205-2.048 0.307-3.072 0.307h-217.702c-1.741 0-3.277-0.307-4.813-0.819-0.205 0-0.41-0.102-0.614-0.205-1.741-0.614-3.277-1.638-4.71-2.867 0 0-0.205 0-0.307-0.205l-124.211-114.893c-3.174-2.867-4.915-6.963-4.915-11.264v-313.242c0-1.024 0.102-2.048 0.307-3.072 1.536-21.811 18.842-39.117 40.653-40.653zM248.013 689.152v-73.318s0-0.307 0-0.41h-79.667l79.667 73.728zM248.013 584.704c1.024 0 2.048 0.102 3.072 0.307 14.438 1.434 25.907 12.902 27.341 27.341 0.205 1.024 0.307 2.048 0.307 3.072v88.064h196.506c7.27 0 13.414-6.144 13.414-13.312v-399.462c0-7.27-6.144-13.312-13.414-13.312h-313.242c-7.27 0-13.312 6.144-13.312 13.312v293.99h99.328zM961.946 473.702h-384.819c-8.499 0-15.36-6.861-15.36-15.36s6.861-15.36 15.36-15.36h384.819c14.848 0 26.829-12.083 26.829-26.829v-196.915c0-14.746-12.083-26.829-26.829-26.829h-899.891c-14.848 0-26.829 11.981-26.829 26.829v196.915c0 14.848 12.083 26.829 26.829 26.829 8.499 0 15.36 6.861 15.36 15.36s-6.861 15.36-15.36 15.36c-31.744 0-57.549-25.805-57.549-57.549v-196.915c0-31.744 25.805-57.549 57.549-57.549h899.891c31.744 0 57.549 25.805 57.549 57.549v196.915c0 31.744-25.805 57.549-57.549 57.549zM311.603 319.693c1.434-1.434 3.174-2.56 5.018-3.379 0 0 0.205 0 0.205 0 1.741-0.717 3.584-1.126 5.632-1.126s3.891 0.41 5.632 1.126c0 0 0.205 0 0.205 0 1.843 0.819 3.584 1.946 5.018 3.379l80.896 80.896c6.042 6.042 6.042 15.77 0 21.709-6.042 6.042-15.77 6.042-21.709 0l-54.682-54.682v218.419c0 8.499-6.861 15.36-15.36 15.36s-15.36-6.861-15.36-15.36v-218.419l-62.259 62.259c-6.042 6.042-15.77 6.042-21.709 0-6.042-5.939-6.042-15.77 0-21.709l88.474-88.474z" />
<glyph unicode="&#xe91b;" glyph-name="plus" d="M571.802 777.318c0 33.178-26.829 59.802-59.802 59.802s-59.802-26.829-59.802-59.802v-269.312h-269.312c-33.178 0-59.802-26.829-59.802-59.802s26.829-59.802 59.802-59.802h269.312v-269.312c0-33.178 26.829-59.802 59.802-59.802s59.802 26.829 59.802 59.802v269.312h269.312c33.178 0 59.802 26.829 59.802 59.802s-26.829 59.802-59.802 59.802h-269.312v269.312z" />
<glyph unicode="&#xe91c;" glyph-name="print" d="M733.901 716.902v-98.611h72.602v92.262c0 23.552-9.114 45.67-25.702 62.259l-47.309 47.309c-16.589 16.589-38.707 25.702-62.259 25.702h-365.773c-48.435 0-87.859-39.424-87.859-87.962v-139.571h72.499v154.931h387.482l56.32-56.32zM821.862 535.859h-619.725c-48.435 0-87.859-39.424-87.859-87.859v-154.931c0-19.968 16.282-36.25 36.25-36.25h66.97v-118.579c0-48.435 39.424-87.962 87.859-87.962h413.082c48.435 0 87.962 39.424 87.962 87.962v118.579h66.97c19.968 0 36.25 16.282 36.25 36.25v154.931c0 48.435-39.424 87.859-87.859 87.859zM733.901 122.88h-443.802v185.651h443.802v-185.651zM795.955 383.488c-21.402 0-38.707 17.306-38.707 38.707s17.306 38.707 38.707 38.707 38.707-17.306 38.707-38.707-17.306-38.707-38.707-38.707z" />
<glyph unicode="&#xe91d;" glyph-name="reports" d="M883.917 608.768c0 125.952-60.518 193.229-179.814 199.885h-1.843s-0.512 1.843-0.512 1.843c-5.632 19.968-16.691 38.4-32.87 54.579-19.558 23.45-52.019 37.376-87.040 37.376h-148.070c-58.163 0-106.598-37.171-120.32-92.467l-0.41-1.741h-1.843c-113.459-9.523-171.008-76.595-171.008-199.373v-414.618c0-127.386 73.114-200.499 200.499-200.499h338.432c124.006 0 200.602 74.957 204.8 200.602v414.515zM369.971 790.118c7.885 28.774 34.714 49.664 63.693 49.664h148.070c20.378 0 36.659-5.939 48.333-17.715 11.878-17.613 17.715-33.792 17.715-48.333 0-15.872-6.246-31.437-17.715-43.93-12.595-11.571-28.262-17.818-44.134-17.818h-148.070c-20.378 0-36.659 5.939-48.333 17.715-11.878 17.715-17.715 33.792-17.715 48.333 0 3.482-0.614 6.861-1.843 10.65l-0.205 0.717 0.205 0.717zM817.050 194.15c0-94.106-43.827-137.933-137.933-137.933h-338.432c-94.106 0-137.933 43.827-137.933 137.933v414.618c0 87.040 31.539 126.874 108.954 137.421l2.15 0.307 0.614-2.048c3.379-10.854 8.397-21.094 15.053-30.413 5.12-9.011 11.059-16.998 17.203-23.142 19.558-23.45 52.019-37.274 87.040-37.274h152.269c55.706 0 104.96 38.298 117.248 91.034l0.512 2.15h2.15c77.926-5.427 111.104-46.592 111.104-137.933v-414.618zM509.85 436.941h-169.267c-19.558 0-31.334-11.674-31.334-31.334s15.872-31.334 31.334-31.334h169.267c15.36 0 31.334 11.674 31.334 31.334s-15.872 31.334-31.334 31.334zM679.117 267.776h-338.432c-19.866 0-31.334-11.366-31.334-31.334s15.872-31.334 31.334-31.334h338.432c15.36 0 31.334 11.674 31.334 31.334s-15.872 31.334-31.334 31.334z" />
<glyph unicode="&#xe91e;" glyph-name="requests" d="M702.874 803.123h-381.747c-141.312 0-221.491-80.179-221.491-221.491v-267.264c0-141.312 80.179-221.491 221.491-221.491h381.85c141.312 0 221.491 76.39 221.491 221.491v267.264c0 141.312-80.179 221.491-221.491 221.491zM863.334 314.368c0-106.906-49.664-160.358-160.358-160.358h-381.85c-106.906 0-160.358 49.664-160.358 160.358v267.264c0 106.906 49.664 160.358 160.358 160.358h381.85c106.906 0 160.358-49.664 160.358-160.358v-267.264zM683.827 581.632l-118.374-95.437c-26.726-22.938-76.39-22.938-106.906 0l-118.374 95.437c-15.258 11.469-30.515 7.68-41.984-3.789-7.68-15.258-7.68-30.515 3.789-41.984l122.163-95.437c22.938-19.046 57.242-30.515 87.859-30.515s64.922 11.469 91.648 30.515l118.374 95.437c11.469 11.469 15.258 30.515 3.789 41.984s-30.515 15.258-41.984 3.789z" />
<glyph unicode="&#xe91f;" glyph-name="search" d="M576.614 872.55c-193.229 0-350.413-157.184-350.413-350.413 0-67.482 19.149-130.458 52.326-183.91l-201.318-207.872c-13.926-14.438-21.504-33.382-21.197-53.453s8.397-38.81 22.835-52.736c14.029-13.619 32.666-21.197 52.224-21.197s39.629 8.090 53.965 22.835l197.939 204.39c55.501-36.966 122.061-58.47 193.536-58.47 193.229 0 350.413 157.184 350.413 350.413s-157.082 350.413-350.31 350.413zM148.275 61.44c-8.909-9.216-24.576-9.421-33.792-0.512-4.608 4.403-7.168 10.342-7.27 16.794 0 6.349 2.253 12.39 6.758 16.998l195.072 201.421c10.342-12.186 21.402-23.654 33.28-34.304l-194.048-200.397zM576.614 222.925c-164.966 0-299.213 134.246-299.213 299.213s134.246 299.213 299.213 299.213 299.213-134.246 299.213-299.213-134.246-299.213-299.213-299.213z" />
<glyph unicode="&#xe920;" glyph-name="sectors" d="M511.898 643.482c-73.318 0-136.192-59.392-136.192-136.192s62.874-136.192 136.192-136.192 136.192 59.392 136.192 136.192-62.874 136.192-136.192 136.192zM511.898 423.526c-45.363 0-83.763 38.4-83.763 83.763s38.4 83.763 83.763 83.763 83.763-38.4 83.763-83.763-38.4-83.763-83.763-83.763zM829.645 577.229c-38.4 171.11-188.518 247.91-317.747 247.91s-279.347-76.8-317.747-247.91c-41.882-188.518 73.318-349.184 174.592-446.874 38.4-38.4 90.829-59.392 143.155-59.392s104.755 20.992 143.155 62.874c104.755 97.792 216.474 254.874 174.592 443.392zM620.134 168.653c-62.874-59.392-157.082-59.392-216.474 0-94.31 90.829-195.482 230.4-157.082 394.547 31.437 153.6 164.147 206.029 268.8 206.029s230.4-52.326 265.318-206.029c34.918-164.147-66.355-303.718-160.563-394.547z" />
<glyph unicode="&#xe921;" glyph-name="select" d="M438.579 829.235c-48.333 0-87.654-39.322-87.654-87.654v-329.523l-17.92 20.48c-17.101 19.456-41.37 29.594-65.843 29.594-16.794 0-33.69-4.813-48.435-14.541-19.456-13.005-32.768-32.87-37.274-55.808s0-46.285 13.107-65.741l103.219-154.931c43.622-65.331 116.531-104.346 195.072-104.346h178.278c95.539 0 173.261 77.722 173.261 173.261v183.501c0 48.333-39.322 87.654-87.654 87.654-5.734 0-11.571-0.614-18.022-1.843l-6.246-1.229-3.789 5.018c-16.691 22.016-42.189 34.611-69.837 34.611-9.216 0-18.227-1.434-26.931-4.198l-7.168-2.355-4.301 6.144c-16.486 23.245-43.213 37.069-71.68 37.069-3.379 0-7.066-0.205-11.059-0.717l-11.469-1.331v159.027c0 48.333-39.322 87.654-87.654 87.654zM548.762 531.456c19.149 0 34.714-15.565 34.714-34.714 0-11.366 7.27-21.504 18.125-25.19 10.752-3.584 22.63 0 29.594 9.216 6.758 8.806 16.896 13.824 27.75 13.824 16.691 0 31.027-11.878 34.099-28.262 1.741-9.011 8.090-16.691 16.589-19.866 8.704-3.277 18.534-1.741 25.702 3.994 6.246 4.813 13.619 7.373 21.504 7.373 19.149 0 34.714-15.565 34.714-34.714v-183.194c0-66.355-53.965-120.32-120.32-120.32h-178.278c-60.826 0-117.35 30.208-151.040 80.896l-103.219 154.726c-10.547 15.974-6.246 37.581 9.523 48.128 15.872 10.65 37.478 6.349 48.128-9.523l59.187-88.883c6.554-9.728 18.432-14.029 29.696-10.65 10.957 3.277 18.637 13.722 18.637 25.395v432.23h1.741c4.403 14.131 17.613 24.474 33.178 24.474 19.149 0 34.714-15.565 34.714-34.714v-207.974c0-11.366 7.27-21.504 18.125-25.19 10.752-3.584 22.63 0 29.594 9.216 6.758 8.806 16.896 13.824 27.75 13.824zM487.526 393.933c-10.65 0-19.354-8.704-19.354-19.354v-146.842c0-10.65 8.704-19.354 19.354-19.354s19.354 8.704 19.354 19.354v146.842c0 10.65-8.704 19.354-19.354 19.354zM585.421 393.933c-10.65 0-19.354-8.704-19.354-19.354v-146.842c0-10.65 8.704-19.354 19.354-19.354s19.354 8.704 19.354 19.354v146.842c0 10.65-8.704 19.354-19.354 19.354zM683.315 393.933c-10.65 0-19.354-8.704-19.354-19.354v-146.842c0-10.65 8.704-19.354 19.354-19.354s19.354 8.704 19.354 19.354v146.842c0 10.65-8.704 19.354-19.354 19.354z" />
<glyph unicode="&#xe922;" glyph-name="settings" d="M887.296 567.296l2.662 2.56-6.144 16.589c-6.656 18.022-14.95 35.942-24.781 53.658l-6.963 12.083c-10.035 16.794-21.606 33.075-34.304 48.435-15.462 18.637-40.858 25.805-64.41 18.33l-67.277-21.402c-14.234 9.933-29.184 18.534-44.851 25.907l-15.053 68.915c-5.325 24.371-24.371 42.701-48.333 46.592-43.622 7.27-89.6 7.168-131.482-0.102-24.064-3.891-43.008-22.221-48.435-46.694l-15.053-68.915c-15.565-7.27-30.618-15.974-44.851-25.907l-67.277 21.402c-23.859 7.578-49.152 0.307-64.512-18.432-12.698-15.36-24.166-31.539-34.406-48.64l-7.066-12.083c-9.626-17.306-17.818-35.226-24.576-53.35-8.397-22.938-1.946-48.435 16.486-64.922l52.224-47.514c-0.717-8.704-1.126-17.306-1.126-25.907s0.41-17.203 1.126-26.010l-52.122-47.411c-18.534-16.589-24.986-42.189-16.589-65.126 6.656-18.022 14.95-35.942 24.781-53.76l6.963-11.981c10.035-16.794 21.606-32.973 34.304-48.435 15.462-18.637 40.755-25.907 64.512-18.33l67.072 21.504c14.234-9.933 29.184-18.534 44.851-25.907l15.053-68.915c5.325-24.371 24.371-42.701 48.333-46.592 21.606-3.584 43.725-5.427 65.741-5.427s44.134 1.843 65.741 5.427c24.064 3.891 43.008 22.221 48.435 46.694l15.053 68.915c15.565 7.27 30.618 15.974 44.851 25.907l67.277-21.402c23.859-7.578 49.152-0.307 64.512 18.33 12.698 15.36 24.166 31.539 34.406 48.742l7.066 12.083c9.626 17.306 17.818 35.226 24.576 53.248 8.397 22.938 1.946 48.435-16.486 64.922l-52.224 47.514c0.717 8.704 1.126 17.306 1.126 25.907s-0.41 17.203-1.126 25.907l52.122 47.411c13.414 12.083 20.582 28.979 20.173 46.080zM830.771 561.459l-73.011-66.458 1.843-14.131c1.434-11.059 2.253-22.221 2.253-33.075s-0.717-22.016-2.253-33.075l-1.843-14.131 73.114-66.56c1.843-1.638 2.56-4.096 1.946-5.939-5.734-15.462-12.8-30.822-20.787-45.261l-6.554-11.366c-8.704-14.438-18.637-28.467-29.594-41.779-1.126-1.434-3.686-1.946-6.144-1.126l-93.901 29.798-11.264-8.602c-17.613-13.619-36.966-24.678-57.242-33.075l-13.107-5.427-21.094-96.256c-0.41-1.946-1.741-4.301-4.198-4.71-37.376-6.246-76.288-6.246-113.766 0-2.355 0.41-3.686 2.765-4.096 4.71l-21.094 96.256-13.107 5.427c-20.378 8.397-39.629 19.456-57.242 33.075l-11.264 8.704-93.696-30.003c-2.355-0.819-5.018-0.205-6.246 1.229-10.957 13.21-20.89 27.238-29.286 41.37l-6.554 11.264c-8.294 14.95-15.36 30.31-21.094 45.67-0.717 1.946 0 4.301 2.048 6.042l73.011 66.355-1.843 14.029c-1.434 11.264-2.253 22.426-2.253 33.28s0.717 22.016 2.253 33.075l1.843 14.131-73.114 66.56c-1.843 1.638-2.56 4.096-1.946 5.939 5.734 15.462 12.8 30.822 20.787 45.261l6.554 11.366c8.704 14.438 18.637 28.467 29.594 41.779 1.229 1.434 3.686 1.946 6.144 1.126l93.901-29.798 11.264 8.602c17.613 13.619 36.966 24.678 57.242 33.075l13.107 5.427 21.094 96.256c0.41 1.946 1.741 4.301 4.403 4.71 36.454 6.349 75.878 6.349 113.664 0.102 2.355-0.41 3.686-2.765 4.096-4.71l21.094-96.256 13.107-5.427c20.378-8.397 39.629-19.456 57.242-33.075l11.264-8.602 93.901 29.798c2.355 0.717 5.018 0.205 6.246-1.229 10.957-13.21 20.89-27.238 29.286-41.37l6.554-11.264c6.554-11.878 12.39-24.064 17.408-36.352l3.482-9.523c0.717-1.946 0-4.301-2.048-6.042zM512.102 574.464c-69.837 0-126.566-56.73-126.566-126.566s56.73-126.566 126.566-126.566 126.566 56.73 126.566 126.566-56.73 126.566-126.566 126.566zM512.102 375.603c-39.834 0-72.294 32.461-72.294 72.294s32.461 72.294 72.294 72.294 72.294-32.461 72.294-72.294-32.461-72.294-72.294-72.294z" />
<glyph unicode="&#xe923;" glyph-name="stuff" d="M426.598 421.581c29.594 0 57.549 6.758 82.739 18.534 30.003-22.221 66.048-34.406 103.936-34.406 96.666 0 175.309 78.643 175.309 175.309s-78.643 175.309-175.309 175.309c-14.438 0-28.57-1.946-42.189-5.325-35.942 39.014-87.347 63.693-144.486 63.693-108.442 0-196.608-88.166-196.608-196.608s88.166-196.608 196.608-196.608zM613.376 703.59c67.584 0 122.47-54.989 122.47-122.47s-54.989-122.47-122.47-122.47c-19.661 0-38.605 4.71-55.706 13.414 40.141 36.045 65.536 88.166 65.536 146.125 0 30.413-7.168 59.187-19.558 84.992 3.174 0.205 6.451 0.41 9.728 0.41zM426.598 761.958c79.258 0 143.77-64.512 143.77-143.77s-64.512-143.77-143.77-143.77-143.77 64.512-143.77 143.77 64.512 143.77 143.77 143.77zM680.755 389.325h-81.613c-2.56 0-5.12-0.102-7.578-0.205-31.949 13.824-67.174 21.504-104.141 21.504h-121.549c-145.306 0-263.475-118.17-263.475-263.475 0-36.352 29.594-65.946 65.946-65.946h686.080c37.069 0 67.277 30.208 67.277 67.277 0 132.813-108.032 240.845-240.845 240.845zM638.874 134.042h-470.528c-7.168 0-13.107 5.837-13.107 13.107 0 116.122 94.515 210.637 210.637 210.637h121.549c116.122 0 210.637-94.515 210.637-210.637 0-7.168-5.837-13.107-13.107-13.107h-46.182zM854.323 134.042h-104.755c0.819 4.198 1.331 8.602 1.331 13.107 0 74.24-30.925 141.414-80.589 189.338h10.445c103.731 0 188.006-84.378 188.006-188.006 0-7.987-6.451-14.438-14.438-14.438z" />
<glyph unicode="&#xe924;" glyph-name="sun" d="M508.416 725.197c-157.696 0-281.907-124.211-281.907-281.907s126.669-281.907 281.907-281.907 281.907 124.211 281.907 281.907-124.211 281.907-281.907 281.907zM508.416 218.624c-124.211 0-224.563 100.352-224.563 224.563s97.997 224.563 224.563 224.563 224.563-97.997 224.563-224.563-97.997-224.563-224.563-224.563zM785.613 761.037c-22.426 0-40.653-18.227-40.653-40.653s18.227-40.653 40.653-40.653 40.653 18.227 40.653 40.653-18.227 40.653-40.653 40.653zM508.416 796.877c22.426 0 40.653 18.227 40.653 40.653s-18.227 40.653-40.653 40.653-40.653-18.227-40.653-40.653 18.227-40.653 40.653-40.653zM233.677 677.376c22.426 0 40.653 18.227 40.653 40.653s-18.227 40.653-40.653 40.653-40.653-18.227-40.653-40.653 18.227-40.653 40.653-40.653zM236.032 211.456c-22.426 0-40.653-18.227-40.653-40.653s18.227-40.653 40.653-40.653 40.653 18.227 40.653 40.653-18.227 40.653-40.653 40.653zM513.229 99.123c-22.426 0-40.653-18.227-40.653-40.653s18.227-40.653 40.653-40.653 40.653 18.227 40.653 40.653-18.227 40.653-40.653 40.653zM783.155 206.643c-22.426 0-40.653-18.227-40.653-40.653s18.227-40.653 40.653-40.653 40.653 18.227 40.653 40.653-18.227 40.653-40.653 40.653zM895.488 486.195c-22.426 0-40.653-18.227-40.653-40.653s18.227-40.653 40.653-40.653 40.653 18.227 40.653 40.653-18.227 40.653-40.653 40.653zM128.512 486.195c-22.426 0-40.653-18.227-40.653-40.653s18.227-40.653 40.653-40.653 40.653 18.227 40.653 40.653-18.227 40.653-40.653 40.653z" />
<glyph unicode="&#xe925;" glyph-name="table" d="M770.15 731.853h-480.87c-70.144 0-127.181-57.037-127.181-127.181v-388.096c0-70.144 57.037-127.181 127.181-127.181h480.87c70.144 0 127.181 57.037 127.181 127.181v388.096c0 70.144-57.037 127.181-127.181 127.181zM835.891 604.672v-69.222h-408.986v135.066h343.142c36.25 0 65.741-29.491 65.741-65.741zM427.008 484.25h408.986v-143.974h-408.986v143.974zM375.808 340.173h-152.269v143.974h152.269v-143.974zM289.28 670.413h86.528v-135.066h-152.269v69.222c0 36.25 29.491 65.741 65.741 65.741zM223.437 216.576v72.499h152.269v-138.24h-86.528c-36.25 0-65.741 29.491-65.741 65.741zM770.15 150.733h-343.142v138.24h408.986v-72.499c0-36.25-29.491-65.741-65.741-65.741z" />
<glyph unicode="&#xe926;" glyph-name="trash" d="M340.275 58.061h343.45c66.253 0 120.115 53.862 120.115 120.115v468.685h14.848c18.842 0 34.202 15.36 34.202 34.202s-15.36 34.202-34.202 34.202h-108.339l-57.037 85.504c-15.872 23.45-41.779 37.171-69.53 37.171h-143.667c-27.853 0-53.76-13.824-69.325-37.069l-57.037-85.606h-108.339c-18.842 0-34.202-15.36-34.202-34.202s15.36-34.202 34.202-34.202h14.848v-468.685c0-66.253 53.862-120.115 120.115-120.115zM425.062 758.886l2.56 3.994c2.765 4.198 7.373 6.656 12.39 6.656h143.667c4.915 0 9.523-2.458 12.39-6.656l31.846-47.514h-231.936l29.082 43.52zM288.666 646.861h446.771v-468.685c0-28.467-23.142-51.61-51.61-51.61h-343.45c-28.467 0-51.61 23.142-51.61 51.61v468.685zM413.901 546.099v-318.976c0-13.517-11.059-24.576-24.576-24.576s-24.576 11.059-24.576 24.576v318.976c0 13.517 11.059 24.576 24.576 24.576s24.576-11.059 24.576-24.576zM536.576 546.099v-318.976c0-13.517-11.059-24.576-24.576-24.576s-24.576 11.059-24.576 24.576v318.976c0 13.517 11.059 24.576 24.576 24.576s24.576-11.059 24.576-24.576zM659.251 546.099v-318.976c0-13.517-11.059-24.576-24.576-24.576s-24.576 11.059-24.576 24.576v318.976c0 13.517 11.059 24.576 24.576 24.576s24.576-11.059 24.576-24.576z" />
<glyph unicode="&#xe927;" glyph-name="types" d="M346.624 65.946h330.854c136.909 0 191.795 54.989 195.891 195.994v310.17l1.536 0.717c38.502 17.203 60.518 54.682 60.518 102.605v41.37c0 68.813-44.442 113.254-113.254 113.254h-620.339c-70.861 0-113.254-42.291-113.254-113.254v-41.37c0-50.074 21.504-86.835 60.518-103.322l1.536-0.614v-309.555c0-141.005 54.989-195.891 195.891-195.891zM808.141 261.939c0-107.11-27.75-134.861-134.861-134.861h-330.854c-107.11 0-134.861 27.75-134.861 134.861v300.339h600.576v-300.339zM149.709 675.43v41.37c0 38.502 13.619 52.224 52.224 52.224h620.339c36.557 0 52.224-15.565 52.224-52.224v-41.37c0-36.557-15.565-52.224-52.224-52.224h-620.442c-38.502 0-52.224 13.619-52.224 52.224zM636.109 499.2h-248.115c-19.354 0-30.515-11.162-30.515-30.515s15.565-30.515 30.515-30.515h248.115c14.95 0 30.515 11.469 30.515 30.515s-15.565 30.515-30.515 30.515z" />
<glyph unicode="&#xe928;" glyph-name="warning" d="M512 798.515c8.602 0 29.901-2.458 42.803-24.678l347.853-602.112c12.902-22.323 4.301-41.984 0-49.459s-17.101-24.781-42.803-24.781h-695.706c-25.805 0-38.502 17.306-42.803 24.781s-12.902 27.136 0 49.459l347.853 602.112c12.902 22.323 34.202 24.678 42.803 24.678zM512 849.715c-33.894 0-67.789-16.794-87.142-50.278l-347.853-602.112c-38.81-67.072 9.626-151.040 87.142-151.040h695.706c77.517 0 125.952 83.866 87.142 151.040l-347.853 602.112c-19.354 33.587-53.248 50.278-87.142 50.278v0zM512.307 162.918c-25.498 0-46.080 20.582-46.080 46.080s20.582 45.466 46.080 45.466 45.466-20.582 45.466-45.466-20.582-46.080-45.466-46.080zM542.822 362.803c-1.843-19.251-5.018-55.398-32.358-55.398s-29.901 36.762-31.13 55.398l-10.547 146.33c-0.614 6.246-1.843 35.533-1.843 53.555 0 14.336 0 61.030 46.694 61.030 43.622 0 43.622-43.622 43.622-66.048s0-28.058-1.229-44.851l-13.107-150.016z" />
<glyph unicode="&#xe929;" glyph-name="helmet" d="M901.734 290.918c1.843 50.995-0.614 221.286-104.038 337.408 8.294 28.979-19.866 55.398-49.050 47.104-0.717-0.205-1.434-0.614-2.15-0.819-30.208 21.709-66.355 39.322-109.158 51.098-3.994 9.933-9.626 19.251-16.896 27.443-18.125 20.48-44.134 32.256-71.475 32.256h-74.957c-27.136 0-53.043-11.571-71.168-31.846-7.578-8.499-13.414-18.125-17.51-28.57-41.882-11.776-77.312-29.082-107.11-50.381-9.933 3.891-20.48 3.482-31.334-1.946-15.462-7.68-23.142-20.787-22.016-38.093 0.102-2.355 0.614-4.71 1.126-7.066-102.605-115.2-106.906-283.136-105.574-335.36-17.306-13.107-28.57-33.792-28.57-57.139v-29.389l13.824-8.192c5.939-3.584 149.299-86.63 405.402-86.63s397.824 83.149 403.661 86.733l13.722 8.192v29.286c0 22.528-10.547 42.701-26.931 55.808zM548.966 728.883c11.366 0 21.709-4.71 29.286-13.21 7.475-8.499 10.854-19.456 9.523-30.72l-29.082-231.834c-1.741-14.131-13.824-24.678-27.955-24.678h-41.267c-14.336 0-26.419 10.752-28.058 25.088l-26.112 231.936c-1.229 11.162 2.15 22.016 9.728 30.413 7.475 8.397 17.818 13.005 29.082 13.005h74.957zM248.73 550.81c14.131-47.002 28.058-94.003 42.291-141.005 5.427-17.92 20.173-29.286 37.581-29.901 2.458-0.717 5.018-1.126 7.578-1.126s5.325 0.41 7.987 1.126c8.090 2.355 14.234 8.192 17.51 15.36 3.072 3.994 5.325 8.602 6.554 13.722 1.843 8.294 1.434 18.022-0.922 26.214-18.637 64-37.99 127.693-57.344 191.488-0.102 0.307-0.102 0.614-0.205 0.922 21.299 15.462 45.158 27.75 71.373 36.966l24.474-217.293c4.813-42.803 40.96-75.059 83.968-75.059h41.267c42.496 0 78.541 31.846 83.866 74.035l27.443 219.136c26.726-9.216 50.893-21.606 72.499-37.171-0.102-0.512-0.102-0.922-0.307-1.434-19.763-64.819-39.219-129.638-58.47-194.662-4.096-14.029-1.126-27.238 6.656-37.069 3.277-7.066 9.421-12.8 17.408-15.155 2.662-0.819 5.325-1.126 7.987-1.126 2.253 0 4.403 0.307 6.554 0.922 17.306 0 32.87 11.674 38.605 30.413 10.854 35.738 21.402 71.578 32.154 107.315 4.403 14.746 8.909 29.594 13.414 44.544 20.070-29.286 36.045-63.693 47.514-103.322 17.715-61.235 20.070-119.808 19.763-151.962h-669.286c-0.102 32.051 2.662 90.214 20.582 151.040 11.674 39.731 27.853 74.24 48.23 103.731 1.126-3.584 2.253-7.168 3.277-10.65zM871.936 238.49c-40.038-19.558-164.454-71.27-360.653-71.27s-321.741 51.917-362.496 71.475c1.638 6.758 7.68 11.674 14.848 11.674h693.35c7.27 0 13.312-5.018 14.95-11.878z" />
<glyph unicode="&#xe92a;" glyph-name="preferred-block" d="M374.067 474.624h-209.51c-61.85 0-112.128 50.278-112.128 112.128v209.408c0 61.85 50.278 112.128 112.128 112.128h209.51c61.85 0 112.128-50.278 112.128-112.128v-209.51c0-61.85-50.278-112.128-112.128-112.128zM164.557 851.968c-30.72 0-55.808-24.986-55.808-55.808v-209.51c0-30.72 24.986-55.808 55.808-55.808h209.51c30.72 0 55.808 24.986 55.808 55.808v209.51c0 30.72-24.986 55.808-55.808 55.808h-209.51zM859.443 474.624h-209.51c-61.85 0-112.128 50.278-112.128 112.128v209.408c0 61.85 50.278 112.128 112.128 112.128h209.51c61.85 0 112.128-50.278 112.128-112.128v-209.51c0-61.85-50.278-112.128-112.128-112.128zM649.933 851.968c-30.72 0-55.808-24.986-55.808-55.808v-209.51c0-30.72 24.986-55.808 55.808-55.808h209.51c30.72 0 55.808 24.986 55.808 55.808v209.51c0 30.72-24.986 55.808-55.808 55.808h-209.51zM374.067-12.288h-209.51c-61.85 0-112.128 50.278-112.128 112.128v209.51c0 61.85 50.278 112.128 112.128 112.128h209.51c61.85 0 112.128-50.278 112.128-112.128v-209.51c0-61.85-50.278-112.128-112.128-112.128zM164.557 365.056c-30.72 0-55.808-24.986-55.808-55.808v-209.51c0-30.72 24.986-55.808 55.808-55.808h209.51c30.72 0 55.808 24.986 55.808 55.808v209.51c0 30.72-24.986 55.808-55.808 55.808h-209.51zM859.443-12.288h-209.51c-61.85 0-112.128 50.278-112.128 112.128v209.51c0 61.85 50.278 112.128 112.128 112.128h209.51c61.85 0 112.128-50.278 112.128-112.128v-209.51c0-61.85-50.278-112.128-112.128-112.128zM649.933 365.056c-30.72 0-55.808-24.986-55.808-55.808v-209.51c0-30.72 24.986-55.808 55.808-55.808h209.51c30.72 0 55.808 24.986 55.808 55.808v209.51c0 30.72-24.986 55.808-55.808 55.808h-209.51zM284.672 779.674l22.938-44.032 48.947-8.192c13.824-2.355 19.251-19.149 9.421-29.184l-34.816-35.43 7.27-49.152c2.048-13.824-12.288-24.269-24.781-18.022l-44.442 22.118-44.442-22.118c-12.493-6.246-26.829 4.198-24.781 18.022l7.27 49.152-34.816 35.43c-9.83 9.933-4.301 26.829 9.421 29.184l48.947 8.192 22.938 44.032c6.451 12.39 24.166 12.39 30.618 0z" />
<glyph unicode="&#xe92b;" glyph-name="preferred" d="M527.36 847.974l22.938-44.032 48.947-8.192c13.824-2.355 19.251-19.149 9.421-29.184l-34.816-35.43 7.27-49.152c2.048-13.824-12.288-24.269-24.781-18.022l-44.442 22.118-44.442-22.118c-12.493-6.246-26.829 4.198-24.781 18.022l7.27 49.152-34.816 35.43c-9.83 9.933-4.301 26.829 9.421 29.184l48.947 8.192 22.938 44.032c6.451 12.39 24.166 12.39 30.618 0zM304.538 602.829c-52.941 0-96.051-43.11-96.051-96.051v-180.941c0-71.373 42.803-80.179 129.638-80.179 8.397 0 11.162-5.222 9.626-13.517 0 0-48.128-139.469-48.128-139.469-17.51-46.694 20.89-100.659 70.758-99.328 0 0 63.795 0 63.795 0 27.341 0 51.61 17.306 60.518 43.11l39.014 112.845c83.251-5.325 104.653 19.661 126.771 96.256h105.062l123.29 357.274h-584.294zM264.806 341.606v165.171c0 21.914 17.818 39.731 39.731 39.731h407.859l-84.48-244.634h-319.693c-30.31 0-43.52 10.138-43.52 39.731zM441.344 54.784c-1.024-3.072-3.994-5.222-7.27-5.222h-63.795c-8.602 0-13.414 5.427-15.155 7.782-1.638 2.355-5.222 8.704-2.458 16.794 5.222 23.142 57.958 171.315 57.958 171.315h94.208l-63.59-190.771zM569.754 205.619h-18.432l12.698 39.936h36.762c-5.325-14.95-10.138-41.267-31.027-39.936zM725.299 301.875h-53.965l84.48 244.634h53.965l-84.48-244.634z" />
<glyph unicode="&#xe92c;" glyph-name="time-absolute" d="M512 16.486c-237.978 0-431.514 193.536-431.514 431.514s193.536 431.514 431.514 431.514 431.514-193.536 431.514-431.514-193.536-431.514-431.514-431.514zM512 823.194c-206.848 0-375.194-168.346-375.194-375.194s168.346-375.194 375.194-375.194 375.194 168.346 375.194 375.194-168.346 375.194-375.194 375.194zM758.886 245.965c-4.71 0-9.421 1.434-13.517 4.403l-256.41 185.856v316.723c0 12.698 10.342 23.040 23.040 23.040s23.040-10.342 23.040-23.040v-293.274l237.363-172.134c10.342-7.475 12.595-21.914 5.12-32.154-4.506-6.246-11.571-9.523-18.637-9.523z" />
<glyph unicode="&#xe92d;" glyph-name="time-relative" d="M512 16.486c-237.978 0-431.514 193.536-431.514 431.514s193.536 431.514 431.514 431.514c15.565 0 28.16-12.595 28.16-28.16s-12.595-28.16-28.16-28.16c-206.848 0-375.194-168.346-375.194-375.194s168.346-375.194 375.194-375.194c120.934 0 235.11 58.778 305.459 157.286 9.011 12.698 26.624 15.565 39.322 6.554s15.565-26.624 6.554-39.322c-80.896-113.254-212.275-180.838-351.334-180.838zM599.962 813.568c-2.048 0-4.198 0.205-6.246 0.717l-2.15 0.512c-15.258 3.174-24.986 18.125-21.709 33.382 3.174 15.258 18.125 24.986 33.382 21.709l2.97-0.614c15.155-3.482 24.678-18.534 21.299-33.69-2.97-13.107-14.541-21.914-27.443-21.914zM913.51 380.826c-0.922 0-1.741 0-2.662 0.102-15.462 1.434-26.829 15.258-25.395 30.72l0.41 4.71c1.229 15.462 14.848 27.136 30.413 25.702 15.462-1.229 27.034-14.848 25.702-30.413l-0.512-5.427c-1.331-14.541-13.619-25.498-27.955-25.498zM907.981 497.050c-13.21 0-24.883 9.318-27.546 22.63l-0.922 4.813c-3.072 15.258 6.656 30.106 21.914 33.28s30.106-6.758 33.28-21.914l1.024-5.12c3.072-15.258-6.861-30.106-22.118-33.075-1.843-0.41-3.686-0.512-5.53-0.512zM869.478 606.925c-10.138 0-19.866 5.427-24.986 15.053l-2.253 4.301c-7.373 13.722-2.253 30.72 11.469 38.093s30.72 2.253 38.093-11.469l2.458-4.71c7.27-13.722 1.946-30.822-11.776-37.99-4.198-2.15-8.704-3.277-13.107-3.277zM801.075 701.133c-7.27 0-14.541 2.765-20.070 8.397l-3.379 3.482c-10.957 10.957-10.957 28.774 0 39.834s28.774 10.957 39.834 0l3.789-3.789c10.854-11.059 10.752-28.877-0.307-39.834-5.53-5.427-12.595-8.090-19.763-8.090zM708.71 771.994c-4.71 0-9.421 1.126-13.722 3.584l-4.096 2.253c-13.619 7.475-18.739 24.576-11.264 38.195 7.373 13.619 24.576 18.739 38.195 11.264l4.813-2.662c13.619-7.578 18.432-24.781 10.752-38.298-5.12-9.216-14.746-14.438-24.576-14.438zM886.579 269.926c-3.482 0-7.066 0.717-10.547 2.048-14.438 5.837-21.402 22.221-15.565 36.659l0.819 1.946c5.632 14.541 21.914 21.709 36.454 16.077s21.709-21.914 16.077-36.454l-1.126-2.765c-4.403-10.957-14.95-17.613-26.112-17.613zM758.886 245.965c-4.71 0-9.421 1.434-13.517 4.403l-256.41 185.856v316.723c0 12.698 10.342 23.040 23.040 23.040s23.040-10.342 23.040-23.040v-293.274l237.363-172.134c10.342-7.475 12.595-21.914 5.12-32.154-4.506-6.246-11.571-9.523-18.637-9.523z" />
<glyph unicode="&#xe92e;" glyph-name="withdrawals" d="M783.258 440.627v-235.008c0-44.544-36.25-80.896-80.896-80.896h-412.877c-44.544 0-80.896 36.25-80.896 80.896v412.877c0 44.544 36.25 80.896 80.896 80.896h237.773l-55.706 56.32h-182.067c-75.674 0-137.216-61.542-137.216-137.216v-412.877c0-75.674 61.542-137.216 137.216-137.216h412.877c75.674 0 137.216 61.542 137.216 137.216v178.074l-56.32 56.934zM611.942 690.995l-64.307 65.024 360.243 65.536-69.427-359.526-64.307 65.024s-303.104-135.578-287.334-120.115l125.030 284.16z" />
<glyph unicode="&#xe92f;" glyph-name="burger" d="M936.55 649.216h-849.101c-28.262 0-51.2 22.938-51.2 51.2s22.938 51.2 51.2 51.2h849.101c28.262 0 51.2-22.938 51.2-51.2s-22.938-51.2-51.2-51.2zM936.55 396.8h-849.101c-28.262 0-51.2 22.938-51.2 51.2s22.938 51.2 51.2 51.2h849.101c28.262 0 51.2-22.938 51.2-51.2s-22.938-51.2-51.2-51.2zM936.55 144.384h-849.101c-28.262 0-51.2 22.938-51.2 51.2s22.938 51.2 51.2 51.2h849.101c28.262 0 51.2-22.938 51.2-51.2s-22.938-51.2-51.2-51.2z" />
<glyph unicode="&#xe930;" glyph-name="document" d="M844.288 568.32c-0.205 1.126-0.614 2.253-1.024 3.379-0.205 0.512-0.205 0.922-0.41 1.434-0.512 1.229-1.126 2.355-1.843 3.482-0.205 0.307-0.307 0.614-0.512 0.922-0.922 1.434-2.048 2.662-3.174 3.891l-268.8 268.8c-1.229 1.229-2.458 2.253-3.891 3.174-0.41 0.205-0.819 0.41-1.126 0.614-1.024 0.614-2.048 1.229-3.277 1.741-0.512 0.205-1.126 0.307-1.638 0.512-1.024 0.307-2.048 0.717-3.072 0.922-1.638 0.307-3.379 0.512-5.018 0.512h-268.8c-56.422 0-102.4-45.978-102.4-102.4v-614.502c0-56.422 45.978-102.4 102.4-102.4h460.902c56.422 0 102.4 45.978 102.4 102.4v422.502c0 1.741-0.205 3.379-0.512 5.018zM576 770.253l181.453-181.453h-181.453v181.453zM742.4 89.6h-460.8c-28.262 0-51.2 22.938-51.2 51.2v614.4c0 28.262 22.938 51.2 51.2 51.2h243.2v-243.2c0-14.131 11.469-25.6 25.6-25.6h243.2v-396.902c0-28.262-22.938-51.2-51.2-51.2z" />
<glyph unicode="&#xe931;" glyph-name="monitoring" d="M928.87 158.413c-24.883 25.088-49.869 49.971-74.957 74.957-28.877 28.774-57.856 57.549-87.040 86.63 2.15 3.994 3.789 7.168 5.53 10.342 35.226 66.253 49.050 136.602 39.834 211.046-25.088 204.288-220.467 344.371-421.99 302.797-182.989-37.786-304.947-212.173-277.811-397.722 35.226-241.664 302.797-375.603 517.222-258.662 7.475 4.096 11.469 3.789 17.613-2.355 51.507-52.019 103.424-103.629 155.136-155.443 18.739-18.842 40.96-28.262 67.584-25.907 24.576 2.15 42.598 15.974 59.187 33.075 36.147 37.274 36.352 84.48-0.205 121.242zM461.619 191.898c-168.755 0-305.869 137.114-306.074 305.971-0.205 168.653 136.397 305.766 305.664 306.381 168.448 0.717 305.664-135.885 306.688-305.357 1.024-168.55-137.114-307.098-306.176-306.995zM896.41 71.27c-3.584-3.686-7.168-7.373-10.957-10.854-14.541-13.005-32.87-13.619-46.592 0-53.043 52.531-105.574 105.472-156.058 156.058 20.070 19.866 40.038 39.526 61.030 60.314 30.515-30.515 63.693-63.795 96.973-97.075 18.432-18.432 36.966-36.864 55.398-55.398 17.306-17.408 17.306-35.533 0.307-53.146zM646.963 615.526c-29.389 0.205-58.88 0.205-88.269 0-16.077-0.102-26.317-9.523-26.317-23.45 0-13.722 10.65-23.245 26.419-23.45 10.445-0.102 20.992 0 31.027 0-35.635-35.533-70.861-70.656-106.598-106.291-23.757 23.859-48.333 48.742-73.114 73.318-13.005 12.902-25.395 12.8-38.4-0.205-37.581-37.376-74.957-74.854-112.435-112.333-11.878-11.981-12.698-25.907-2.458-35.942 9.933-9.83 24.269-8.806 36.045 2.97 29.696 29.594 59.29 59.29 88.986 88.883 2.765 2.765 5.734 5.427 9.011 8.602 3.072-2.867 5.837-5.222 8.294-7.782 21.606-21.606 43.213-43.213 64.819-64.717 15.258-15.155 26.931-15.155 42.394 0.307 36.762 36.659 73.421 73.318 110.080 109.978 2.662 2.662 5.53 5.018 8.397 7.68 1.024-1.741 1.331-1.946 1.331-2.253 0.102-9.933 0.102-19.866 0.307-29.798 0.307-15.974 9.626-26.522 23.347-26.522s23.45 10.65 23.552 26.419c0.205 29.389 0.205 58.88 0 88.269 0 17.613-8.909 26.317-26.624 26.419z" />
<glyph unicode="&#xe932;" glyph-name="electric" d="M329.523 369.152c-7.168 11.878-7.578 26.419-1.024 38.707l224.051 423.526c9.011 16.794 28.672 24.781 46.694 19.046 18.227-5.939 29.491-23.962 26.829-42.803l-36.454-261.734h71.066c13.722 0 26.624-7.168 33.587-19.046s7.578-26.419 1.024-38.707l-224.051-423.731c-6.963-13.107-20.48-20.89-34.816-20.89-4.096 0-8.192 0.614-12.083 1.843-18.227 5.939-29.491 23.962-26.829 42.803l36.454 261.734h-71.066c-13.722 0-26.419 7.168-33.587 19.046z" />
<glyph unicode="&#xe933;" glyph-name="heat" d="M544.563 496.128c-65.126 63.488-71.475 152.576-15.974 224.666 17.203 21.709 49.357 45.67 40.55 76.595-7.987 42.803-77.21 51.405-102.195 23.757-118.579-107.52-127.795-272.998-18.022-389.53 97.485-82.125 116.531-197.018 19.661-287.334-15.565-18.022-15.155-35.021-13.517-43.622 68.198-139.674 205.414 86.016 197.222 156.467-0.41 110.797-34.816 164.864-107.52 238.797zM256.205 499.2c-75.776 73.318-59.392 187.187 15.36 253.952 24.166 27.853 14.131 66.765-20.275 80.077-40.55 19.251-77.414-14.541-100.352-44.851-57.754-70.451-76.39-149.094-55.706-234.086 11.469-47.718 38.298-91.955 81.306-135.987 94.003-80.282 92.774-193.536 4.301-277.504-30.72-36.454 6.758-85.197 48.947-83.149 39.936 0 63.693 40.755 87.245 69.222 91.341 120.218 48.128 279.552-60.416 372.326zM865.485 457.216v0c-100.352 90.317-127.386 195.379-22.938 297.165 45.67 57.139-43.827 113.050-89.498 67.789-146.022-132.71-114.893-312.525 23.962-436.838 57.344-65.741 53.453-155.443-6.349-221.594-15.36-16.589-35.84-35.226-31.13-59.802 3.277-27.034 33.792-45.261 59.392-44.646 31.334-1.434 54.272 25.6 72.909 47.718 89.293 104.448 86.016 246.374-6.554 350.413z" />
<glyph unicode="&#xe934;" glyph-name="stop" d="M778.24 714.24v-532.48h-532.48v532.48h532.48zM778.24 775.68h-532.48c-33.894 0-61.44-27.546-61.44-61.44v-532.48c0-33.894 27.546-61.44 61.44-61.44h532.48c33.894 0 61.44 27.546 61.44 61.44v532.48c0 33.894-27.546 61.44-61.44 61.44v0z" />
<glyph unicode="&#xe935;" glyph-name="play" d="M181.965 447.795c0 99.738-0.102 199.373 0.205 299.11 0 10.65 1.434 21.709 4.71 31.846 13.824 42.291 59.187 59.085 100.352 36.864 33.69-18.125 66.662-37.581 99.942-56.525 136.294-77.517 272.486-155.034 408.678-232.755 8.909-5.018 17.613-10.957 24.883-18.125 28.365-27.853 28.57-67.482 0.512-95.744-6.861-6.861-14.95-12.8-23.245-17.818-168.141-103.117-336.486-206.029-504.73-309.043-16.691-10.24-34.406-17.101-54.374-14.336-30.003 4.198-51.712 27.136-55.398 58.368-0.922 7.27-1.331 14.643-1.331 22.016 0 98.714 0 197.427 0 296.141zM248.422 135.27c177.254 108.442 352.768 215.859 528.486 323.482-8.499 9.318-520.602 300.134-528.486 300.544v-624.026z" />
<glyph unicode="&#xe936;" glyph-name="approve" d="M665.6 782.541c-47.923 22.528-98.918 34.304-155.75 36.25-5.53-0.614-11.674-1.229-17.715-1.741l-2.15-0.205c-13.824-1.331-29.491-2.765-44.032-5.222-97.997-16.384-183.603-71.066-241.050-153.907-57.344-82.842-78.438-182.17-59.29-279.654 23.654-120.627 101.376-218.419 213.094-268.288 110.49-49.357 233.472-42.086 337.51 19.968 116.326 69.325 177.766 175.514 182.477 315.597 0.307 9.318-2.662 17.818-8.499 23.859-5.53 5.837-13.312 9.114-21.914 9.216-17.818 0.512-30.822-12.8-31.642-32.87-0.819-19.456-2.253-35.533-4.608-50.483-12.595-79.974-59.597-153.19-128.819-200.704-69.632-47.821-155.341-65.434-235.213-48.333-164.864 35.328-268.902 187.802-242.176 354.714 22.323 139.162 150.323 251.085 291.533 254.771 48.845 1.229 94.822-7.885 140.8-27.75 6.656-2.867 16.486-3.789 25.088-2.355 12.39 2.15 19.968 14.438 21.094 25.395 1.434 13.926-5.53 25.805-18.637 31.949zM915.558 762.061v0c-13.517 12.083-30.618 10.24-45.875-5.018-113.050-113.050-226.099-226.099-339.046-339.149-1.126-1.126-2.355-2.867-4.096-5.222l-0.717-0.922c-1.126-1.536-2.253-3.174-3.584-4.915l-13.619-17.818-13.926 17.613c-1.638 2.048-2.97 3.789-4.198 5.427-1.843 2.355-2.765 3.789-3.994 4.915-16.794 16.896-33.587 33.69-50.381 50.483l-48.947 48.947c-7.168 7.168-14.336 10.547-22.426 10.547-1.331 0-2.56 0-3.994-0.205-13.517-1.741-21.709-8.090-25.907-20.275-4.403-12.698-1.946-23.245 7.782-32.973 35.226-35.328 70.554-70.656 105.882-105.984l31.13-31.13c10.752-10.752 20.070-15.974 28.467-16.077 8.397 0 17.51 5.12 28.058 15.667l375.194 375.194c3.379 3.379 5.837 5.837 7.987 8.499 10.342 13.107 8.704 31.334-3.789 42.496z" />
<glyph unicode="&#xe937;" glyph-name="blocked" d="M765.645 577.638v43.725c0 139.878-113.766 253.645-253.645 253.645s-253.645-113.766-253.645-253.645v-43.725c-68.813-3.174-123.802-60.109-123.802-129.638v-297.267c0-71.578 58.266-129.843 129.843-129.843h495.411c71.578 0 129.843 58.266 129.843 129.843v297.267c0 69.53-54.989 126.566-123.802 129.638zM319.795 621.363c0 105.984 86.221 192.205 192.205 192.205s192.205-86.221 192.205-192.205v-43.622h-384.41v43.622zM828.006 150.733c0-37.683-30.72-68.403-68.403-68.403h-495.309c-37.683 0-68.403 30.618-68.403 68.403v297.267c0 37.683 30.72 68.403 68.403 68.403h495.411c37.683 0 68.403-30.618 68.403-68.403v-297.267zM587.366 196.403c-3.891 18.534-7.782 37.683-11.981 56.525-0.717 3.072-0.614 4.096 2.048 6.758 20.685 20.992 29.389 47.309 25.395 76.186-5.427 39.424-35.942 71.373-74.138 77.824-5.325 0.922-10.854 1.331-16.179 1.331-34.714 0-66.048-18.842-81.818-49.152-18.432-35.533-11.878-77.722 16.691-107.622 0.614-0.717 1.229-3.174 1.024-4.301-3.686-19.251-7.782-38.707-11.776-57.651l-3.789-17.818c-2.048-9.933-0.717-17.92 3.891-23.757s12.186-8.806 22.323-8.909c6.861 0 13.722-0.102 20.582-0.102h16.077s15.565 0 15.565 0c5.632 0 11.059 0 16.384 0 5.427 0 10.752 0 16.179 0 7.168 0 14.336 0 21.504 0.102 9.728 0.205 16.998 3.174 21.606 8.909 4.71 5.837 6.042 13.722 3.994 23.45l-3.789 18.125zM485.069 194.15v0.41s9.216 44.339 9.216 44.339c0.205 0.922 0.41 1.843 0.614 2.765 7.475 22.118 2.867 38.4-14.643 52.736-7.885 6.451-12.493 15.974-12.8 26.829-0.41 12.902 5.325 25.907 15.053 34.918 7.987 7.373 18.432 11.366 29.286 11.366 12.595 0 24.678-5.427 33.075-14.95 8.192-9.216 12.186-21.402 10.957-33.587-1.126-11.571-6.758-21.811-15.974-28.774-13.21-10.035-17.306-21.811-13.312-38.298 3.686-14.848 6.758-30.31 9.728-45.158 0.819-4.198 1.638-8.397 2.56-12.595h-53.965z" />
<glyph unicode="&#xe938;" glyph-name="clear-data" d="M630.579 63.898c-14.131-10.342-26.010-7.373-38.4 0.307-30.72 19.149-59.597 40.55-86.221 65.024-15.36 14.131-17.203 22.835-8.090 42.394-35.226-9.011-43.315 10.547-63.386 34.202-3.277 4.198-6.656 5.734-11.981 5.12-100.045-7.885-205.722-0.922-296.653 44.851-27.75 14.438-55.808 38.502-56.934 71.987-0.512 118.17 0 236.442-0.512 354.611-2.15 71.373 68.096 111.206 128.614 127.283 113.664 38.4 446.054 40.141 449.843-126.669-0.614-89.498-0.205-179.098-0.205-268.698 0-11.059 0-10.957 10.65-10.854 5.325 0 11.059 1.024 15.872-0.614 9.318-2.97 13.619 1.434 18.637 8.294 46.080 64.41 92.262 128.717 138.752 192.819 28.467 39.322 78.336 46.797 115.2 17.818 33.485-26.317 40.141-72.704 14.95-108.646-47.206-66.458-95.13-132.403-142.848-198.554-2.97-4.096-3.686-7.168-1.229-11.878 13.926-26.726 14.131-54.067 4.403-82.33-23.654-64.205-43.418-130.048-38.4-199.27 0.614-21.094-18.637-32.87-38.093-25.19-30.515 11.981-60.928 24.064-91.443 35.942-13.926 5.427-22.938 14.336-22.63 31.846zM358.605 779.264c-76.595-2.458-164.454-7.987-224.666-60.826-57.139-57.446 95.437-97.485 130.15-103.219 102.298-14.336 219.136-13.619 308.019 45.158 31.232 20.787 26.419 51.405-4.403 69.53-63.59 38.4-135.987 48.23-209.101 49.357zM121.344 556.134c1.229-36.659-9.216-63.488 28.774-84.787 108.032-61.235 259.686-57.651 375.398-19.968 90.931 32.563 65.331 72.806 68.915 151.45 0 7.373-1.843 7.373-7.987 4.403-81.715-44.134-174.899-57.344-266.752-51.098-216.371 12.902-198.963 111.002-198.349 0zM121.344 424.346c0-28.774 0.512-57.958-0.307-86.733-0.307-9.83 2.97-17.203 10.547-21.811 78.029-52.634 175.411-57.958 266.65-53.862 1.946 0.102 4.813 1.536 5.427 3.072 4.608 11.059 14.029 15.053 24.576 18.33 60.006 18.842 113.357 49.562 161.382 89.907 9.933 12.595 2.867 31.744 4.915 46.797 0.102 6.451-1.741 6.554-7.066 3.891-57.958-32.358-123.187-46.899-188.928-50.688-96.051-7.373-190.054 8.909-277.094 51.098zM663.859 353.28c-0.307-0.717-0.614-1.434-0.922-2.15-13.619 0.614-24.474-5.325-34.406-13.926-32.256-27.546-66.867-51.61-104.653-70.758-14.95-7.578-30.515-14.029-45.773-21.197-1.741-0.819-4.301-3.072-4.096-4.198 1.229-7.885 15.667-17.306 23.962-16.077 23.654 3.482 47.206 7.168 70.861 10.547 14.438 2.048 24.371-2.662 29.901-13.517 13.21-25.19-21.504-44.646-36.147-61.44-4.71-4.301-5.734-7.066 0.205-11.264 13.824-9.626 27.341-19.661 40.653-29.901 4.506-3.482 7.475-2.765 11.366 0.717 21.606 14.131 44.646 54.886 73.421 39.731 25.805-16.794 3.277-53.248 0.819-77.312-1.331-5.53-1.229-9.216 5.325-11.469 9.728-3.277 19.251-7.373 28.672-11.571 5.632-2.56 6.656-0.819 7.168 4.915 2.15 21.402 2.765 43.315 8.090 64 9.421 37.069 21.504 73.523 33.178 109.978 7.475 23.245 2.458 43.315-16.794 57.344-29.798 20.275-56.422 46.387-91.034 57.651zM924.877 559.821c-1.536 11.674-8.704 21.402-19.763 25.395-30.515 10.035-42.803-32.154-59.597-49.971-36.25-50.278-72.397-100.762-108.851-150.938-4.096-5.734-3.891-8.499 2.048-12.39 10.342-6.758 20.378-14.131 30.208-21.709 4.813-3.686 7.373-3.686 11.059 1.536 45.568 63.59 91.443 127.078 136.909 190.669 3.584 5.018 5.325 11.469 7.885 17.306z" />
<glyph unicode="&#xe939;" glyph-name="kiosk" d="M1006.899 605.901c-0.307 6.554-3.174 12.902-8.192 17.306l-211.661 188.109c-4.506 3.994-10.342 6.246-16.384 6.246h-517.325c-6.042 0-11.878-2.253-16.384-6.246l-211.661-188.109c-5.018-4.403-7.885-10.752-8.192-17.306v-5.12c0-56.832 46.182-103.014 102.912-103.014 4.198 0 8.499 0.307 12.698 0.819v-395.469c0-13.619 11.059-24.678 24.678-24.678h709.427c13.619 0 24.678 11.059 24.678 24.678v395.469c4.096-0.512 8.192-0.717 12.39-0.717 56.832 0 103.014 46.182 103.014 103.014v5.12h-0.102zM182.17 518.554v0c6.042 4.71 11.469 9.83 16.282 15.462 19.661-23.142 47.923-36.25 78.438-36.25s58.778 13.107 78.336 36.25c19.661-23.040 47.821-36.25 78.336-36.25s58.778 13.107 78.336 36.25c19.661-23.040 47.821-36.25 78.336-36.25s58.778 13.107 78.336 36.25c19.661-23.040 47.821-36.25 78.336-36.25s58.88 13.414 78.336 36.25c4.915-5.734 10.547-10.957 16.691-15.565v-245.658h-659.763v245.76zM798.822 586.138c-6.554-22.938-27.75-39.014-51.712-39.014s-45.158 16.077-51.712 39.014c-3.277 11.674-14.336 19.763-26.726 19.763s-23.45-8.090-26.726-19.763c-6.554-22.938-27.75-39.014-51.712-39.014s-45.158 16.077-51.712 39.014c-3.277 11.674-14.336 19.763-26.726 19.763s-23.45-8.090-26.726-19.763c-6.554-22.938-27.75-39.014-51.712-39.014s-45.158 16.077-51.712 39.014c-3.277 11.674-14.336 19.763-26.726 19.763s-23.45-8.090-26.726-19.763c-6.554-22.938-27.75-39.014-51.712-39.014s-45.158 16.077-51.712 39.014c-3.277 11.674-14.336 19.763-26.726 19.763s-23.45-8.090-26.726-19.763c-6.554-22.938-27.75-39.014-51.712-39.014-26.931 0-49.869 20.48-53.248 47.002l195.891 174.080h498.586l195.891-174.080c-3.379-26.522-26.317-47.002-53.248-47.002-23.859 0-45.158 16.077-51.712 39.014-3.277 11.674-14.336 19.763-26.726 19.763s-23.45-8.090-26.726-19.763zM842.24 223.437v-95.642h-660.070v95.642h660.070z" />
<glyph unicode="&#xe93a;" glyph-name="link" d="M536.883 312.32c-43.622 0.922-81.101 15.974-112.435 46.080-13.312 12.902-14.234 31.949-2.355 45.363 11.674 13.107 31.642 14.643 45.158 2.15 21.197-19.456 45.261-30.208 74.342-28.774 22.426 1.024 42.086 9.011 58.778 23.859 9.523 8.499 18.33 17.818 27.443 26.931 58.47 58.368 116.941 116.736 175.309 175.309 32.973 33.075 39.526 80.077 16.794 118.784-30.72 52.326-101.99 64-146.842 23.040-24.781-22.63-47.923-47.206-71.782-70.963-13.926-13.824-27.546-27.853-41.677-41.472-9.626-9.421-21.299-12.288-33.997-7.475-12.288 4.608-19.354 14.029-20.685 27.238-1.126 11.366 3.789 20.275 11.674 28.16 28.877 28.672 57.446 57.651 86.426 86.221 13.21 13.005 26.317 26.419 41.165 37.478 67.789 50.586 169.677 34.918 220.058-32.973 48.23-65.126 45.056-149.709-11.264-208.179-68.198-70.656-138.24-139.469-208.282-208.282-29.594-29.082-66.867-41.472-107.827-42.291zM468.378 565.658c43.93-0.819 81.408-15.974 112.64-45.978 13.414-12.902 14.234-32.051 2.355-45.363-11.776-13.107-31.539-14.643-45.158-2.15-20.992 19.149-44.749 30.003-73.523 28.774-22.733-0.922-42.701-8.806-59.494-23.962-10.65-9.523-20.48-19.968-30.618-30.106-51.302-51.302-102.707-102.502-153.907-154.010-38.195-38.4-40.243-95.334-5.222-134.451 35.43-39.526 96.973-43.315 135.782-6.861 31.642 29.696 61.747 61.133 92.467 91.853 9.626 9.626 20.582 14.131 34.099 10.24 21.811-6.349 30.106-32.461 16.179-50.381-0.922-1.229-1.843-2.355-2.97-3.482-32.358-32.256-63.898-65.434-97.382-96.461-87.245-80.691-233.165-36.557-261.939 78.848-14.131 56.627-2.355 108.032 38.093 149.914 62.566 64.922 126.771 128.205 191.181 191.283 29.594 28.979 66.867 41.472 107.52 42.189z" />
<glyph unicode="&#xe93b;" glyph-name="sync" d="M829.338 478.618c-16.998 0-30.72-13.722-30.72-30.72 0-158.003-128.614-286.618-286.618-286.618-78.234 0-151.347 31.437-204.698 86.016h99.43c16.998 0 30.72 13.722 30.72 30.72s-13.722 30.72-30.72 30.72h-160.154c-6.554 0.614-13.312-0.717-19.354-4.506-7.373-4.71-11.981-11.981-13.619-19.866 0-0.307 0-0.717-0.102-1.024-0.307-1.536-0.512-3.174-0.512-4.71 0-0.205 0-0.307 0-0.512v-163.021c0-16.998 13.722-30.72 30.72-30.72s30.72 13.722 30.72 30.72v78.336c63.59-59.597 147.763-93.491 237.568-93.491 191.898 0 348.058 156.16 348.058 348.058 0 16.998-13.722 30.72-30.72 30.72zM225.382 447.898c0 158.003 128.614 286.618 286.618 286.618 78.131 0 151.142-31.334 204.493-85.811h-99.43c-16.998 0-30.72-13.722-30.72-30.72s13.722-30.72 30.72-30.72h160.87c6.349-0.41 12.902 0.922 18.637 4.608 7.27 4.608 11.981 11.878 13.619 19.763 0 0.512 0.102 0.922 0.205 1.434 0.205 1.434 0.41 2.97 0.41 4.506 0 0.205 0 0.307 0 0.41v163.021c0 16.998-13.722 30.72-30.72 30.72s-30.72-13.722-30.72-30.72v-78.438c-63.59 59.494-147.661 93.286-237.363 93.286-191.898 0-348.058-156.16-348.058-348.058 0-16.998 13.722-30.72 30.72-30.72s30.72 13.722 30.72 30.72z" />
<glyph unicode="&#xe93c;" glyph-name="alert-active" d="M139.469 563.917c3.891 96.051 39.526 180.326 108.134 250.47 10.24 10.445 25.702 10.957 35.635 1.536 10.342-9.83 10.342-25.498-0.819-36.864-32.051-32.768-56.525-70.349-72.704-113.254-12.8-34.099-19.456-69.427-20.48-105.779-0.102-3.891 0.102-7.782-0.41-11.571-1.946-12.595-13.21-21.709-25.702-21.197-12.902 0.614-23.142 11.059-23.654 24.166-0.205 3.584 0 7.168 0 12.595zM884.326 561.050c0-4.403 0.614-8.909-0.102-13.21-2.048-12.595-13.619-21.504-26.010-20.685-12.902 0.922-22.938 11.162-23.142 24.678-0.41 30.72-4.403 60.928-13.005 90.522-14.336 49.050-39.014 92.16-73.728 129.536-2.253 2.458-4.608 4.71-6.861 7.168-10.752 11.571-10.854 27.238-0.41 36.864 10.24 9.523 25.498 8.499 36.25-2.458 25.088-25.498 46.285-53.965 63.181-85.504 27.955-52.224 42.291-107.93 43.827-167.117zM608.768 822.067l-0.819 0.307-0.41 0.819c-18.33 33.587-54.374 55.603-93.901 57.446-39.424 0-77.005-22.016-95.437-56.115l-0.41-0.819-0.922-0.307c-104.755-39.219-175.104-140.698-175.104-252.416v-115.2c0-21.299-9.523-52.736-18.022-67.686l-46.49-77.517c-17.92-29.082-21.197-63.795-8.704-92.877 11.264-31.539 35.84-54.579 69.325-65.024 44.442-14.438 90.112-25.498 135.782-32.973l1.536-0.205 0.512-1.536c7.168-22.221 18.944-41.882 33.792-56.73 25.702-30.003 61.85-45.773 104.448-45.773 63.795 0 121.344 42.701 139.878 103.731l0.41 1.536 1.536 0.307c44.851 7.782 90.010 19.149 134.144 33.894 31.437 11.264 56.525 35.533 67.072 64.819 11.162 31.334 7.987 66.048-8.602 93.082v0s-46.49 77.517-46.49 77.517c-9.114 13.619-18.125 47.206-18.125 67.789v115.2c-3.277 110.592-71.885 208.384-174.694 248.934zM585.626 107.418c-17.203-22.323-43.418-35.123-71.987-35.123-25.702 0-48.435 9.728-63.898 27.443-1.638 1.331-3.072 3.174-4.506 5.018-0.614 0.717-1.126 1.434-1.741 2.15l-4.096 4.71 6.246-0.512c22.528-1.741 44.646-2.662 65.843-2.662 23.552 0 47.718 1.024 71.987 3.174l5.837 0.512-3.584-4.608zM799.232 284.365c9.933-14.848 8.909-33.69 4.71-46.387-4.71-16.384-16.282-28.058-32.768-32.666-84.275-27.75-170.906-41.574-257.638-41.574s-173.466 13.824-257.741 41.574c-19.046 7.168-32.563 19.046-37.069 32.666-4.608 13.824-2.458 27.853 6.861 44.134l46.49 77.517c12.698 23.245 26.214 64.922 26.214 96.154v115.2c0 117.453 95.539 212.992 212.992 212.992s215.142-95.539 215.142-212.992v-115.2c0-31.232 13.517-72.909 26.214-96.256l46.49-75.162z" />
<glyph unicode="&#xe93d;" glyph-name="archive" d="M903.27 466.842c0 40.55-15.667 64.614-52.429 80.282v15.667c0 13.517 0 27.238 0 40.858-0.307 33.792-18.33 60.314-49.459 72.704-2.662 1.024-2.97 1.536-2.97 4.813v5.53c0.307 15.155 0.512 30.822-0.102 46.285-0.512 11.776-1.946 20.89-4.608 28.774-11.059 32.051-40.243 51.2-77.926 51.2-66.765 0-133.53 0-200.294 0h-80.077s-38.912 0-38.912 0c-29.901 0-59.904 0-89.907-0.102-48.333-0.307-80.998-33.178-81.101-81.613v-3.277c0-15.565-0.102-31.232 0-46.797 0-3.277-0.307-3.789-2.867-4.915-32.666-13.722-49.254-38.707-49.459-74.342 0-13.312 0-26.726 0-40.243v-14.746c-38.605-17.818-52.326-39.834-52.326-82.739v-49.664c0-82.842 0-165.581 0-249.344 0-5.222 0-10.547 0.819-15.872 6.758-41.165 38.502-66.765 82.842-66.765 77.107 0 154.214 0 231.424 0 127.795 0 255.693 0 383.59 0 5.837 0 14.541 0.205 22.938 2.048 36.966 8.294 60.826 38.81 60.928 77.926 0 72.397 0 144.794 0 217.19v86.835zM275.866 709.53c0 8.499 0 16.998 0 25.498 0.307 15.462 9.728 25.702 25.19 27.341 2.662 0.307 5.325 0.307 7.885 0.307h405.709c9.626 0 18.125-0.512 23.654-6.861 6.963-7.987 8.602-13.107 8.806-15.974 0.922-14.541 0.717-28.979 0.614-44.237 0-4.301 0-8.704-0.102-13.107h-471.654v27.034zM800.358 551.424h-33.792c-22.733 0-45.466 0-68.198 0h-0.307c-28.16 0-50.586-11.981-66.56-35.635-6.554-9.626-12.902-19.251-19.251-28.877-6.246-9.421-14.336-13.824-25.702-13.824v0c-24.166 0-48.435 0-72.602 0-25.498 0-50.995 0-76.493 0v0c-10.957 0-19.251 4.301-25.19 13.21l-5.734 8.602c-4.915 7.475-9.933 15.053-15.053 22.426-15.77 22.426-37.376 33.894-64.205 33.997-23.040 0-46.080 0-69.12 0h-33.997c0 4.915 0 9.933-0.205 14.746-0.205 15.258-0.41 29.594 0.512 44.032 0.717 12.186 12.698 20.378 23.859 21.197 2.355 0.205 4.813 0.205 7.168 0.102h511.59c24.064 0 33.382-9.216 33.382-32.973v-47.206zM324.813 501.043c11.469 0.41 19.968-4.403 26.317-14.234 6.451-9.933 13.005-19.968 19.866-29.696 15.872-22.733 37.683-34.304 64.922-34.406 50.586-0.205 101.171-0.102 151.654 0 27.648 0 49.664 11.776 65.638 34.816 6.758 9.83 13.312 19.661 19.866 29.696 6.246 9.421 14.336 13.414 25.702 13.824 23.040-0.102 46.080 0 69.12 0 18.739 0 37.478 0 56.218 0 17.613 0 28.467-10.957 28.57-28.57 0-103.322 0-206.643 0-309.965 0-16.896-10.138-27.648-27.136-28.979-2.355-0.205-4.71-0.102-7.066-0.102h-1.843s-304.947 0-304.947 0h-307.507c-18.022 0-28.467 6.758-32.051 20.787-0.819 3.277-0.922 6.861-0.922 9.728 0 102.502 0 205.005 0 307.507 0 19.149 10.65 29.798 29.901 29.798 15.565 0 31.232 0 46.797 0 25.6 0 51.302 0 76.902 0.102zM423.936 253.030c12.493 0 24.986 0 37.581 0 9.933 0 19.866 0 29.798 0h20.685s25.088 0 25.088 0c21.504 0 43.008 0 64.614 0 12.288 0 21.197 5.837 25.088 16.282 2.97 7.885 2.048 16.077-2.458 22.528-5.018 7.27-13.926 11.469-24.371 11.469-58.675 0.102-117.35 0.102-175.923 0-8.806 0-16.589-2.97-21.811-8.294-4.608-4.71-6.861-10.752-6.758-17.51 0.307-14.643 11.776-24.576 28.467-24.576z" />
<glyph unicode="&#xe93e;" glyph-name="message" d="M512.922 845.312c57.549 0 115.2 0.512 172.749-0.205 31.539-0.41 63.386-1.638 93.389-12.288 79.872-28.467 129.638-83.866 143.974-168.141 4.403-25.805 5.325-52.429 5.632-78.746 0.717-66.355 0.512-132.71 0-199.066-0.512-58.573-21.094-109.67-62.054-151.654-39.424-40.448-87.245-63.898-144.077-66.253-34.816-1.434-69.632-1.741-104.55-1.741-38.195 0-72.704-10.752-103.731-33.075-33.178-23.962-66.253-48.026-99.942-71.168-43.725-30.106-102.502-5.837-111.616 46.49-1.946 11.366 0.41 24.064 2.97 35.635 3.482 15.155-0.717 22.426-16.486 22.016-31.846-0.819-63.078 1.946-92.058 16.384-63.488 31.642-99.738 82.739-101.171 153.907-1.843 90.010-0.614 180.019 0.512 270.029 0.307 24.064 2.867 48.538 7.885 72.090 18.739 87.552 95.642 154.829 185.242 162.202 37.376 3.072 75.059 3.584 112.538 4.301 36.966 0.717 73.933 0.102 110.899 0.102 0-0.205 0-0.41 0-0.717zM872.243 507.802c-1.434 38.502-2.048 89.395-5.632 140.186-5.12 72.704-66.15 122.266-111.718 131.072-25.395 4.915-51.61 7.578-77.517 7.885-93.696 1.024-187.392 1.024-280.986 0.614-34.202-0.102-68.506-1.229-102.605-4.096-67.482-5.734-124.109-59.29-134.349-125.645-2.662-17.306-4.71-34.918-4.813-52.429-0.717-89.088-1.741-178.278-0.41-267.366 0.717-49.152 27.341-83.354 71.782-103.629 21.709-9.933 44.851-8.909 67.891-9.011 49.664-0.307 83.558-47.411 68.096-94.618-2.458-7.475-3.891-14.336 3.379-19.661 7.168-5.222 13.517-2.15 19.866 2.458 32.256 23.142 64.614 46.182 96.87 69.222 39.936 28.57 84.48 42.598 133.53 42.701 36.045 0.102 72.192 0.205 108.134 1.946 72.704 3.482 140.186 69.12 144.896 141.722 2.662 41.984 2.355 84.173 3.584 138.752zM512.307 399.872c-51.2 0-102.4 0-153.6 0-20.89 0-35.021 18.022-29.696 37.171 3.482 12.39 14.746 20.89 28.672 20.992 24.269 0.205 48.538 0 72.704 0 78.234 0 156.365 0 234.598 0 17.101 0 29.696-10.445 31.232-25.395 1.946-18.534-10.957-32.666-30.31-32.768-51.2-0.102-102.4 0-153.6 0zM434.893 554.906c-25.088 0-50.278-0.205-75.366 0-19.046 0.205-31.744 12.698-31.334 30.208 0.41 15.053 11.674 27.648 26.829 27.75 52.941 0.41 105.984 0.41 158.925 0 14.643 0 26.317-12.186 27.443-26.522 1.126-14.541-8.499-27.443-22.938-30.515-3.789-0.819-7.782-1.024-11.674-1.024-23.962 0-47.821 0-71.782 0z" />
<glyph unicode="&#xe93f;" glyph-name="restart" d="M830.362 466.432c-17.101 0.41-31.232-12.595-31.846-29.491-5.837-154.726-131.789-275.866-286.72-275.866s-284.774 126.669-286.822 283.136c0.102 1.229 0.41 2.458 0.41 3.686 0 158.003 128.614 286.618 286.618 286.618 78.131 0 151.142-31.334 204.493-85.811h-99.43c-16.998 0-30.72-13.722-30.72-30.72s13.722-30.72 30.72-30.72h160.87c6.349-0.41 12.902 0.922 18.637 4.608 7.27 4.608 11.981 11.878 13.619 19.763 0 0.512 0.102 0.922 0.205 1.434 0.205 1.434 0.41 2.97 0.41 4.506 0 0.205 0 0.307 0 0.41v163.021c0 16.998-13.722 30.72-30.72 30.72s-30.72-13.722-30.72-30.72v-78.438c-62.362 58.368-144.589 91.955-232.346 93.184-1.741 0.307-3.379 0.512-5.222 0.512-192.102 0-348.365-156.262-348.365-348.365s156.262-348.365 348.365-348.365 340.992 147.149 348.058 334.95c0.614 16.998-12.595 31.232-29.491 31.846z" />
<glyph unicode="&#xe940;" glyph-name="save" d="M511.898 69.837c-100.045 0-200.090 0-300.134 0-40.448 0-70.861 25.907-77.21 65.536-0.717 4.608-0.717 9.421-0.717 14.131 0 199.066 0 398.029 0 597.094 0 47.309 32.256 79.565 79.667 79.565 165.478 0 330.854 0 496.333 0.102 9.83 0 17.613-3.072 24.576-10.035 48.538-48.742 97.178-97.382 145.92-145.92 6.963-6.963 10.035-14.746 10.035-24.576-0.102-165.376 0-330.854-0.102-496.23 0-47.309-32.256-79.565-79.667-79.565-99.533 0-199.066 0-298.598 0zM764.109 120.32c16.794 0 32.666 0 48.64 0 16.589 0.102 26.931 10.445 26.931 27.238 0 161.997 0 323.994-0.102 485.99 0 3.174-1.536 7.27-3.789 9.523-42.701 43.008-85.709 85.914-128.614 128.717-1.536 1.536-3.789 3.584-5.632 3.584-12.493 0.307-24.986 0.205-38.195 0.205v-9.318c0-46.182 0-92.467 0-138.65 0-32.461-21.197-53.555-53.862-53.658-64.819 0-129.741 0-194.56 0-33.075 0-54.067 21.094-54.067 54.17 0 46.182 0 92.467 0 138.65v8.909h-9.523c-45.158 0-90.317 0-135.475 0-22.63 0-31.334-8.806-31.334-31.437 0-197.427 0-394.957 0-592.384 0-2.355 0-4.71 0-7.066 0.614-11.878 8.704-22.938 20.275-23.654 18.227-1.229 36.454-0.307 55.194-0.307v9.114c0 54.886 0 109.773 0 164.659 0 44.851 32.768 77.722 77.414 77.824 116.326 0.102 232.653 0 348.979 0 7.27 0 14.746-0.819 21.709-2.662 33.587-9.011 55.808-37.99 56.013-73.114 0.205-58.266 0-116.531 0-176.128zM713.626 120.525v7.885c0 54.886 0 109.67 0 164.557 0 19.046-9.933 28.877-29.184 28.877-114.995 0-229.99 0-344.986 0-19.456 0-29.184-9.626-29.184-28.877 0-54.886 0-109.67 0-164.557 0-2.56 0.205-5.018 0.41-7.782h402.944zM612.25 624.845v150.221h-200.704v-150.221h200.704z" />
<glyph unicode="&#xe941;" glyph-name="kiosk-off" d="M1006.899 605.901c-0.307 6.554-3.174 12.902-8.192 17.306l-121.344 107.827-32.358-37.274 112.23-99.738c-3.379-26.522-26.317-47.002-53.248-47.002-23.859 0-45.158 16.077-51.712 39.014-3.277 11.674-14.336 19.763-26.726 19.763s-23.45-8.090-26.726-19.763c-6.554-22.938-27.75-39.014-51.712-39.014-8.704 0-17.101 2.15-24.576 6.042l-32.87-37.786c16.794-11.366 36.557-17.613 57.446-17.613 30.003 0 58.88 13.414 78.336 36.25 4.915-5.734 10.547-10.957 16.691-15.565v-245.658h-363.622l-42.906-49.357h406.528v-95.642h-489.779l-42.906-49.357h557.363c13.619 0 24.678 11.059 24.678 24.678v395.469c4.096-0.512 8.192-0.717 12.39-0.717 56.832 0 103.014 46.182 103.014 103.014v5.12h-0.102zM862.31 890.675c-12.8 11.162-32.154 9.83-43.315-2.97l-61.030-70.144h-504.627c-6.042 0-11.878-2.253-16.384-6.246l-211.661-188.109c-5.018-4.403-7.885-10.752-8.192-17.306v-5.12c0-56.832 46.182-103.014 102.912-103.014 4.198 0 8.499 0.307 12.698 0.819v-395.469c0-1.229 0.205-2.458 0.41-3.686l-44.134-50.79c-11.162-12.8-9.83-32.256 2.97-43.315 5.837-5.018 13.005-7.578 20.173-7.578 8.602 0 17.101 3.584 23.142 10.547l730.112 839.066c11.162 12.8 9.83 32.256-2.97 43.315zM120.115 547.123c-26.931 0-49.869 20.48-53.248 47.002l195.891 174.080h452.403l-170.291-195.686c-2.662 4.198-4.71 8.704-6.144 13.619-3.277 11.674-14.336 19.763-26.726 19.763s-23.45-8.090-26.726-19.763c-6.554-22.938-27.75-39.014-51.712-39.014s-45.158 16.077-51.712 39.014c-3.277 11.674-14.336 19.763-26.726 19.763s-23.45-8.090-26.726-19.763c-6.554-22.938-27.75-39.014-51.712-39.014s-45.158 16.077-51.712 39.014c-3.277 11.674-14.336 19.763-26.726 19.763s-23.45-8.090-26.726-19.763c-6.554-22.938-27.75-39.014-51.712-39.014zM503.91 525.517l-219.853-252.723h-101.888v245.76c6.042 4.71 11.469 9.83 16.282 15.462 19.661-23.142 47.923-36.25 78.438-36.25s58.778 13.107 78.336 36.25c19.661-23.040 47.821-36.25 78.336-36.25 26.522 0 51.405 9.933 70.349 27.75zM182.17 223.437h58.88l-58.88-67.686v67.686z" />
<glyph unicode="&#xe942;" glyph-name="disapprove" d="M508.723 819.098c-204.595 0-371.098-166.502-371.098-371.098s166.502-371.098 371.098-371.098 371.098 166.502 371.098 371.098-166.4 371.098-371.098 371.098zM199.168 448c0 170.701 138.854 309.658 309.658 309.658 74.342 0 142.643-26.317 195.994-70.144l-435.507-435.507c-43.827 53.453-70.144 121.754-70.144 195.994zM508.723 138.342c-74.342 0-142.643 26.317-195.994 70.144l435.507 435.507c43.827-53.453 70.144-121.754 70.144-195.994 0-170.701-138.854-309.658-309.658-309.658z" />
<glyph unicode="&#xe943;" glyph-name="columns" d="M925.491 541.901c-7.987 7.987-20.89 7.987-28.877 0l-65.024-65.024-65.024 65.024c-7.987 7.987-20.89 7.987-28.877 0s-7.987-20.89 0-28.877l65.024-65.024-65.024-65.024c-7.987-7.987-7.987-20.89 0-28.877s20.89-7.987 28.877 0l65.024 65.024 65.024-65.024c7.987-7.987 20.89-7.987 28.877 0s7.987 20.89 0 28.877l-65.024 65.024 65.024 65.024c7.987 7.987 7.987 20.89 0 28.877zM910.029 286.106c-14.131 0-25.6-11.469-25.6-25.6 0-53.862-43.827-97.587-97.587-97.587h-99.84v570.163h99.84c53.862 0 97.587-43.827 97.587-97.587 0-14.131 11.469-25.6 25.6-25.6s25.6 11.469 25.6 25.6c0 82.022-66.765 148.787-148.787 148.787h-549.683c-82.022 0-148.787-66.765-148.787-148.787v-374.989c0-82.022 66.765-148.787 148.787-148.787h549.581c82.022 0 148.787 66.765 148.787 148.787 0 14.131-11.469 25.6-25.6 25.6zM336.998 162.918h-99.84c-53.76 0-97.587 43.827-97.587 97.587v53.453h197.427v-151.040zM336.998 365.158h-197.427v165.683h197.427v-165.683zM336.998 582.042h-197.427v53.453c0 53.862 43.827 97.587 97.587 97.587h99.84v-151.040zM635.802 162.918h-247.501v151.040h247.501v-151.040zM635.802 365.158h-247.501v165.683h247.501v-165.683zM635.802 582.042h-247.501v151.040h247.501v-151.040z" />
<glyph unicode="&#xe944;" glyph-name="control-big" d="M175.872 665.088h21.888c21.76-36.928 61.824-61.824 107.712-61.824s85.952 24.896 107.712 61.824h435.008c34.816 0 63.168 28.352 63.168 63.168s-28.352 63.168-63.168 63.168h-435.008c-21.76 36.928-61.824 61.824-107.712 61.824s-85.952-24.896-107.712-61.824h-21.888c-34.816 0-63.168-28.352-63.168-63.168s28.352-63.168 63.168-63.168zM848.128 759.36c17.152 0 31.168-13.952 31.168-31.168s-13.952-31.168-31.168-31.168h-421.76c2.56 9.984 4.096 20.352 4.096 31.168s-1.536 21.184-4.096 31.168h421.76zM217.92 759.36c4.288 11.968 10.944 22.848 19.456 32 17.024 18.304 41.152 29.824 68.096 29.824s51.072-11.52 68.096-29.824c8.512-9.152 15.168-20.032 19.456-32 3.456-9.728 5.504-20.224 5.504-31.168s-1.984-21.376-5.504-31.168c-4.288-11.968-10.944-22.848-19.456-32-17.024-18.304-41.152-29.824-68.096-29.824s-51.072 11.52-68.096 29.824c-8.512 9.152-15.168 20.032-19.456 32-3.456 9.728-5.504 20.224-5.504 31.168s1.984 21.376 5.504 31.168zM175.872 759.36h8.704c-2.56-9.984-4.096-20.352-4.096-31.168s1.536-21.184 4.096-31.168h-8.704c-17.152 0-31.168 13.952-31.168 31.168s13.952 31.168 31.168 31.168zM848.128 230.912h-21.888c-21.76 36.928-61.824 61.824-107.712 61.824s-85.952-24.896-107.712-61.824h-434.944c-34.816 0-63.168-28.352-63.168-63.168s28.352-63.168 63.168-63.168h435.008c21.76-36.928 61.824-61.824 107.712-61.824s85.952 24.896 107.712 61.824h21.888c34.816 0 63.168 28.352 63.168 63.168s-28.352 63.168-63.168 63.168zM175.872 136.64c-17.152 0-31.168 13.952-31.168 31.168s13.952 31.168 31.168 31.168h421.76c-2.56-9.984-4.096-20.352-4.096-31.168s1.536-21.184 4.096-31.168h-421.76zM806.080 136.64c-4.288-11.968-10.944-22.848-19.456-32-17.024-18.304-41.152-29.824-68.096-29.824s-51.072 11.52-68.096 29.824c-8.512 9.152-15.168 20.032-19.456 32-3.456 9.728-5.504 20.224-5.504 31.168s1.984 21.376 5.504 31.168c4.288 11.968 10.944 22.848 19.456 32 17.024 18.304 41.152 29.824 68.096 29.824s51.072-11.52 68.096-29.824c8.512-9.152 15.168-20.032 19.456-32 3.456-9.728 5.504-20.224 5.504-31.168s-1.984-21.376-5.504-31.168zM848.128 136.64h-8.704c2.56 9.984 4.096 20.352 4.096 31.168s-1.536 21.184-4.096 31.168h8.704c17.152 0 31.168-13.952 31.168-31.168s-13.952-31.168-31.168-31.168zM175.232 384.832h229.12c21.76-36.928 61.824-61.824 107.712-61.824s85.952 24.896 107.712 61.824h229.12c34.816 0 63.168 28.352 63.168 63.168s-28.352 63.168-63.168 63.168h-229.12c-21.76 36.928-61.824 61.824-107.712 61.824s-85.952-24.896-107.712-61.824h-229.12c-34.816 0-63.168-28.352-63.168-63.168s28.352-63.168 63.168-63.168zM632.896 479.168h215.872c17.152 0 31.168-13.952 31.168-31.168s-13.952-31.168-31.168-31.168h-215.872c2.56 9.984 4.096 20.352 4.096 31.168s-1.536 21.184-4.096 31.168zM512 540.992c51.264 0 92.992-41.728 92.992-92.992s-41.728-92.992-92.992-92.992-92.992 41.728-92.992 92.992 41.728 92.992 92.992 92.992zM175.232 479.168h215.872c-2.56-9.984-4.096-20.352-4.096-31.168s1.536-21.184 4.096-31.168h-215.872c-17.152 0-31.168 13.952-31.168 31.168s13.952 31.168 31.168 31.168z" />
<glyph unicode="&#xe945;" glyph-name="filters" d="M943.309 819.2c-4.198 9.011-13.21 14.746-23.245 14.746h-816.128c-10.035 0-19.046-5.837-23.245-14.95s-2.662-19.763 3.891-27.341l323.686-376.525c-0.102-1.024-0.307-2.048-0.307-3.072 0-2.97 0.614-5.734 1.536-8.397l19.046-252.416c0.512-6.349 3.277-12.288 7.885-16.691l123.494-116.941c4.813-4.608 11.162-6.963 17.613-6.963 3.174 0 6.451 0.614 9.523 1.843 9.318 3.686 15.565 12.493 16.077 22.426l19.558 370.381c0.614 2.15 1.024 4.403 1.024 6.758 0 1.126-0.205 2.15-0.307 3.174l316.314 376.627c6.349 7.578 7.782 18.227 3.584 27.238zM554.906 93.082l-76.083 71.987-16.691 221.491h108.237l-15.462-293.478zM578.458 441.549c-1.024-1.126-1.843-2.458-2.56-3.789h-120.115c-0.819 1.434-1.741 2.765-2.765 3.994l-293.274 341.094h705.434l-286.72-341.299z" />
<glyph unicode="&#xe946;" glyph-name="high-voltage" d="M512 798.515c8.602 0 29.901-2.458 42.803-24.678l347.853-602.112c12.902-22.323 4.301-41.984 0-49.459s-17.101-24.781-42.803-24.781h-695.706c-25.805 0-38.502 17.306-42.803 24.781s-12.902 27.136 0 49.459l347.853 602.112c12.902 22.323 34.202 24.678 42.803 24.678zM512 849.715c-33.894 0-67.789-16.794-87.142-50.278l-347.853-602.112c-38.81-67.072 9.626-151.040 87.142-151.040h695.706c77.517 0 125.952 83.866 87.142 151.040l-347.853 602.112c-19.354 33.587-53.248 50.278-87.142 50.278v0zM472.269 123.187c8.090 67.789 16.179 135.475 24.474 205.414-38.093-19.354-74.65-37.99-113.050-57.446 2.458 16.998 4.608 32.461 6.963 47.923 11.571 75.674 23.347 151.245 34.509 227.021 1.331 8.806 4.813 12.698 13.312 15.36 38.4 11.981 76.493 24.781 116.429 37.888-13.824-67.072-27.341-132.915-41.267-200.704 35.43 13.722 69.222 26.726 105.267 40.653-48.845-106.701-96.87-211.558-144.896-316.416-0.614 0.102-1.331 0.307-1.946 0.41z" />
<glyph unicode="&#xe947;" glyph-name="message-big" d="M341.696 28.096c20.416-8.576 43.84-5.952 62.592 6.912 31.36 21.632 62.656 44.224 92.864 66.048l11.264 8.128c33.536 24.192 71.872 36.48 113.92 36.48 0.704 0 1.6 0 2.496 0h1.216c30.848 0 67.456 0.192 105.088 1.792 54.784 2.304 103.168 24.512 143.744 66.176 40.64 41.664 61.504 92.608 62.016 151.424 0.704 80.256 0.704 146.24 0 207.616-0.256 25.856-1.152 53.568-5.76 80.64-13.952 82.368-62.336 138.816-143.808 167.872-29.824 10.624-61.568 11.84-94.208 12.224-43.52 0.512-87.936 0.384-127.168 0.32h-10.624c-14.144 0-28.288-0.064-42.432-0.064h-9.984v0.704c-8.448 0-16.896 0-25.344 0.064-26.24 0.128-53.376 0.256-80.256-0.256l-9.28-0.192c-35.264-0.64-71.744-1.28-107.648-4.224-89.792-7.424-165.632-73.856-184.384-161.536-4.992-23.424-7.68-48.064-8-73.28l-0.192-14.72c-1.088-87.552-2.176-177.984-0.32-266.752 1.408-68.416 35.136-119.488 100.16-151.936 31.168-15.552 65.28-16.704 91.392-16h1.6c10.176 0 17.408-2.752 22.080-8.448 6.72-8.256 5.248-19.136 3.52-26.688-2.624-11.456-4.8-23.36-3.072-33.28 3.904-22.464 17.984-40.32 38.528-48.96zM284.16 186.368h-6.72c-22.464 0-45.76 0.064-68.224 10.368-52.032 23.808-80 64.32-80.768 117.056-1.216 80.128-0.512 161.6 0.128 240.384l0.32 38.912c0.128 16.256 1.792 34.112 5.184 56.192 11.52 74.432 74.304 133.12 149.248 139.584 32.064 2.752 67.392 4.16 107.904 4.352 117.824 0.512 208.32 0.256 293.504-0.704 27.776-0.32 55.616-3.136 82.752-8.384 55.808-10.816 119.36-69.696 124.672-145.856 2.624-37.76 3.712-75.392 4.672-108.608v-1.152c0.384-13.12 0.768-25.536 1.216-36.864-0.448-18.752-0.704-35.584-0.896-51.52v-1.216c-0.512-34.112-0.96-63.424-2.88-93.056-5.12-79.872-80.192-153.344-160.64-157.184-35.648-1.728-71.744-1.856-106.688-1.984h-6.656c-49.28-0.192-94.272-14.592-133.696-42.816l-37.76-26.944c-21.12-15.104-42.24-30.144-63.36-45.312-3.328-2.368-10.176-7.296-18.56-7.296-4.864 0-9.536 1.6-13.888 4.8-14.080 10.304-9.216 25.216-7.104 31.616 6.656 20.48 3.456 41.92-8.768 58.88-12.224 16.896-31.488 26.688-52.928 26.816zM671.616 429.376c-50.24 0-100.416 0-150.656 0h-138.56c-10.496 0-20.992 0-31.488 0-9.92-0.064-17.92-5.824-20.352-14.656-1.792-6.336-0.704-12.608 3.072-17.6 4.096-5.376 10.752-8.512 18.304-8.512 38.016-0.128 76.032-0.064 114.048 0h46.272s56.256 0 56.256 0c34.688 0 69.44 0 104.128 0.064 6.976 0 12.992 2.432 16.896 6.784 3.776 4.16 5.44 9.984 4.8 16.384-1.088 10.496-10.24 17.6-22.784 17.6zM513.92 591.040c-59.072 0.384-113.28 0.32-165.824 0-10.048-0.064-17.856-8.32-18.112-19.264-0.128-5.888 1.664-11.008 5.312-14.72 4.032-4.16 10.304-6.528 17.536-6.592 18.368-0.128 36.736-0.128 55.040-0.064h23.552s22.72 0 22.72 0c17.408 0 34.752 0 52.16 0 4.352 0 7.488 0.256 10.24 0.832 10.112 2.112 16.832 11.072 16.064 21.312-0.768 10.304-9.024 18.432-18.752 18.432z" />
</font>
</defs>
</svg>
